Today is a free download without charge Download

Гнев человеческий / Wrath of Man (Гай Ричи) [2021 г., боевик, триллер, WEB-DL 2160p] [HEVC] [HDR] | DUB (Line) | AVO (Яроцкий)

Reply to topic
 
Author
Message

Theseus ®

Gender:

Longevity: 10 years

Posts: 2154

Торрент-статистика

Post 28-May-2021 20:19

[Quote]

Гнев человеческий / Wrath of Man-Год выхода: 2021
Страна: США, Великобритания
Жанр: боевик, триллер
Продолжительность: 01:58:56
Перевод 1: Профессиональный дублированный | Line
Перевод 2: Авторский (одноголосый, закадровый) | Яроцкий
Субтитры: Английские-Режиссер: Гай Ричи-В ролях: Джейсон Стэйтем, Холт Маккэллани, Джеффри Донован, Джош Хартнетт, Лас Алонсо, Алекс Фернс, Рауль Кастильо, Деобиа Опарей, Скотт Иствуд, Нив Алгар-О фильме: Грузовики лос-анджелесской инкассаторской компании Fortico Security часто подвергаются нападениям, и во время очередного ограбления погибают оба охранника. Через некоторое время в компанию устраивается крепкий немногословный британец Патрик Хилл. Он получает от босса прозвище Эйч и, впритык к необходимому минимуму он пройдя тесты по фитнесу, стрельбе и вождению, отправляется на первое задание. Вскоре и его грузовик пытаются ограбить вооруженные налётчики, но Эйч в одиночку расправляется с целой бандой и становится героем. Кажется, слава и уважение коллег его совершенно не интересуют, ведь он преследует свои цели.- -Качество: WEB-DL 2160p
Формат: MKV
Видео кодек: H.265
Аудио кодек: AC3, E-AC3
Видео: MPEG-H HEVC, HDR, 3840x1600 (2,40:1), 23,976 fps, 14.9 Mb/s, 10 Bit
Аудио 1: AC3, 48.0 kHz, 2 ch, 256 kb/s | RUS [DUB, Line] | Tnx KinoPub
Аудио 3: AC3, 48.0 kHz, 6 ch, 448 kb/s | RUS [AVO, Яроцкий] | Ненормативная лексика
Аудио 4: E-AC3, 48.0 kHz, 6 ch, 640 kb/s | ENG [Оригинал]- -

MI

Код:
Общее
Уникальный идентификатор                 : 34714455788620521492991233855067013438 (0x1A1DC2D0485C1ED0CCDC4B40106C413E)
Полное имя                               : Wrath.of.Man.(2021).2160p.AMZN.WEB-DL.DDP5.1.HDR.HEVC_KinoPub.mkv
Формат                                   : Matroska
Версия формата                           : Version 4
Размер файла                             : 13,5 Гбайт
Продолжительность                        : 1 ч. 58 м.
Общий поток                              : 16,2 Мбит/сек
Название фильма                          : Wrath.of.Man.(2021).2160p.AMZN.WEB-DL.DDP5.1.HDR.HEVC_KinoPub
Дата кодирования                         : UTC 2021-05-28 11:16:35
Программа кодирования                    : mkvmerge v53.0.0 ('Fool's Gold') 64-bit
Библиотека кодирования                   : libebml v1.4.1 + libmatroska v1.6.2
Видео
Идентификатор                            : 1
Формат                                   : HEVC
Формат/Информация                        : High Efficiency Video Coding
Профиль формата                          : Main 10@L5@Main
HDR format                               : SMPTE ST 2094 App 4, Version 1, HDR10+ Profile B compatible
Идентификатор кодека                     : V_MPEGH/ISO/HEVC
Продолжительность                        : 1 ч. 58 м.
Битрейт                                  : 14,9 Мбит/сек
Ширина                                   : 3 840 пикселей
Высота                                   : 1 600 пикселей
Соотношение сторон                       : 2,40:1
Режим частоты кадров                     : Постоянный
Частота кадров                           : 23,976 (24000/1001) кадра/сек
Цветовое пространство                    : YUV
Субдискретизация насыщенности            : 4:2:0
Битовая глубина                          : 10 бит
Бит/(Пиксели*Кадры)                      : 0.101
Размер потока                            : 12,4 Гбайт (92%)
Default                                  : Да
Forced                                   : Нет
Цветовой диапазон                        : Limited
Основные цвета                           : BT.2020
Характеристики трансфера                 : PQ
Коэффициенты матрицы                     : BT.2020 non-constant
Mastering display color primaries        : BT.2020
Mastering display luminance              : min: 0.0050 cd/m2, max: 1000 cd/m2
Maximum Content Light Level              : 717 cd/m2
Maximum Frame-Average Light Level        : 194 cd/m2
Аудио #1
Идентификатор                            : 2
Формат                                   : AC-3
Формат/Информация                        : Audio Coding 3
Коммерческое название                    : Dolby Digital
Идентификатор кодека                     : A_AC3
Продолжительность                        : 1 ч. 58 м.
Вид битрейта                             : Постоянный
Битрейт                                  : 256 Кбит/сек
Каналы                                   : 2 канала
Channel layout                           : L R
Частота                                  : 48,0 КГц
Частота кадров                           : 31,250 кадров/сек (1536 SPF)
Метод сжатия                             : С потерями
Размер потока                            : 218 Мбайт (2%)
Заголовок                                : [DUB] Line | KinoPub
Язык                                     : Russian
Service kind                             : Complete Main
Default                                  : Да
Forced                                   : Нет
Аудио #2
Идентификатор                            : 3
Формат                                   : AC-3
Формат/Информация                        : Audio Coding 3
Коммерческое название                    : Dolby Digital
Идентификатор кодека                     : A_AC3
Продолжительность                        : 1 ч. 58 м.
Вид битрейта                             : Постоянный
Битрейт                                  : 448 Кбит/сек
Каналы                                   : 6 каналов
Channel layout                           : L R C LFE Ls Rs
Частота                                  : 48,0 КГц
Частота кадров                           : 31,250 кадров/сек (1536 SPF)
Метод сжатия                             : С потерями
Размер потока                            : 381 Мбайт (3%)
Заголовок                                : [AVO] Яроцкий
Язык                                     : Russian
Service kind                             : Complete Main
Default                                  : Нет
Forced                                   : Нет
Аудио #3
Идентификатор                            : 4
Формат                                   : E-AC-3
Формат/Информация                        : Enhanced AC-3
Коммерческое название                    : Dolby Digital Plus
Идентификатор кодека                     : A_EAC3
Продолжительность                        : 1 ч. 58 м.
Вид битрейта                             : Постоянный
Битрейт                                  : 640 Кбит/сек
Каналы                                   : 6 каналов
Channel layout                           : L R C LFE Ls Rs
Частота                                  : 48,0 КГц
Частота кадров                           : 31,250 кадров/сек (1536 SPF)
Метод сжатия                             : С потерями
Размер потока                            : 544 Мбайт (4%)
Заголовок                                : English
Язык                                     : English
Service kind                             : Complete Main
Default                                  : Нет
Forced                                   : Нет
Текст #1
Идентификатор                            : 5
Формат                                   : UTF-8
Идентификатор кодека                     : S_TEXT/UTF8
Идентификатор кодека/Информация          : UTF-8 Plain Text
Продолжительность                        : 1 ч. 50 м.
Битрейт                                  : 70 бит/сек
Count of elements                        : 1990
Размер потока                            : 56,8 Кбайт (0%)
Заголовок                                : English [SDH]
Язык                                     : English
Default                                  : Нет
Forced                                   : Нет
Текст #2
Идентификатор                            : 6
Формат                                   : UTF-8
Идентификатор кодека                     : S_TEXT/UTF8
Идентификатор кодека/Информация          : UTF-8 Plain Text
Продолжительность                        : 1 ч. 50 м.
Битрейт                                  : 63 бит/сек
Count of elements                        : 1792
Размер потока                            : 51,5 Кбайт (0%)
Заголовок                                : English
Язык                                     : English
Default                                  : Нет
Forced                                   : Нет

Трейлер

Скриншоты

    
- -

_________________
Other forum [Profile] [PM]
Display posts from previous:    
Reply to topic

The time now is: Today 12:48

All times are GMT + 3 Hours



You cannot post new topics in this forum
You cannot reply to topics in this forum
You cannot edit your posts in this forum
You cannot delete your posts in this forum
You cannot vote in polls in this forum
You cannot attach files in this forum
You cannot download files in this forum