Today is a free download without charge Download

Конёк-Горбунок / Upon the Magic Roads (Олег Погодин) [2021, Россия, приключения, фэнтези, комедия, WEB-DL 1080p]

Reply to topic
 
Author
Message

}{@R0N ®

Longevity: 5 years 5 months

Posts: 7730

Торрент-статистика

Post 01-Apr-2021 21:14

[Quote]

Конёк-Горбунок / Upon the Magic Roads- Производство: Кинокомпания СТВ
Жанр: приключения, фэнтези, комедия
Режиссер: Олег Погодин
Актеры: Антон Шагин, Павел Деревянко, Михаил Ефремов, Паулина Андреева, Ян Цапник, Олег Тактаров, Владимир Дикун, Виталий Копнин, Екатерина Байгозина, Алина Недобитко
Описание:
Иван - не царевич, не богатырь, не красавец, а старшие братья и вовсе его дураком считают. Но всё меняется, когда у Ивана появляется друг и верный помощник - Конёк-Горбунок. Пусть он ростом невелик, зато умный и смелый. С таким другом никакой враг не страшен. Ну, почти никакой. С таким помощником и ничего невозможного нет. Ну, почти, нет. Ивану с Коньком предстоит проверить свою дружбу на прочность, столкнуться с коварным противником, преодолеть невероятные испытания и встретить такую любовь, ради которой стоит рискнуть всем. Ну, почти всем.

Возраст: 6+ (зрителям, достигшим 6 лет)
Рейтинг MPAA: G (нет возрастных ограничений)
Дата российской премьеры: 18 февраля 2021
Продолжительность: 01:51:12
Качество видео: WEBRip Сэмпл
Субтитры: Отсутствуют
Видео: AVC/H.264, 1920x1036, 5224 Kbps
Аудио: AAC, 2 ch, 192 Kbps

MediaInfo:

Общее
Уникальный идентификатор : 159821622486053923930262702711332495698 (0x783C865C9CA0D39813F141C567A96152)
Полное имя : D:\Konyok-gorbunok.2021.1080p.KP.WEB-DL.mkv
Формат : Matroska
Версия формата : Version 4
Размер файла : 4,21 Гбайт
Продолжительность : 1 ч. 51 м.
Общий поток : 5419 Кбит/сек
Дата кодирования : UTC 2021-03-31 21:03:50
Программа кодирования : mkvmerge v55.0.0 ('Waiting For Space') 64-bit
Библиотека кодирования : libebml v1.4.2 + libmatroska v1.6.4
Видео
Идентификатор : 1
Формат : AVC
Формат/Информация : Advanced Video Codec
Профиль формата : High@L4
Настройки формата : CABAC / 4 Ref Frames
Параметр CABAC формата : Да
Параметр RefFrames формата : 4 кадра
Идентификатор кодека : V_MPEG4/ISO/AVC
Продолжительность : 1 ч. 51 м.
Битрейт : 5224 Кбит/сек
Номинальный битрейт : 6000 Кбит/сек
Ширина : 1920 пикселей
Высота : 1036 пикселей
Соотношение сторон : 1,85:1
Режим частоты кадров : Постоянный
Частота кадров : 24,000 кадра/сек
Цветовое пространство : YUV
Субдискретизация насыщенности : 4:2:0
Битовая глубина : 8 бит
Тип развёртки : Прогрессивная
Бит/(Пиксели*Кадры) : 0.109
Размер потока : 4,06 Гбайт (96%)
Библиотека кодирования : x264 core 157 r2969 d4099dd
Настройки программы : cabac=1 / ref=4 / deblock=1:0:0 / analyse=0x3:0x133 / me=umh / subme=10 / psy=1 / psy_rd=1.00:0.00 / mixed_ref=1 / me_range=24 / chroma_me=1 / trellis=2 / 8x8dct=1 / cqm=0 / deadzone=21,11 / fast_pskip=1 / chroma_qp_offset=-2 / threads=32 / lookahead_threads=5 / sliced_threads=0 / nr=0 / decimate=1 / interlaced=0 / bluray_compat=0 / stitchable=1 / constrained_intra=0 / bframes=8 / b_pyramid=2 / b_adapt=2 / b_bias=0 / direct=3 / weightb=1 / open_gop=0 / weightp=2 / keyint=192 / keyint_min=96 / scenecut=40 / intra_refresh=0 / rc_lookahead=60 / rc=2pass / mbtree=1 / bitrate=6000 / ratetol=1.0 / qcomp=0.60 / qpmin=0 / qpmax=69 / qpstep=4 / cplxblur=20.0 / qblur=0.5 / vbv_maxrate=6600 / vbv_bufsize=1100 / nal_hrd=none / filler=0 / ip_ratio=1.40 / aq=1:1.00
Default : Да
Forced : Нет
Аудио
Идентификатор : 2
Формат : AAC LC
Формат/Информация : Advanced Audio Codec Low Complexity
Идентификатор кодека : A_AAC-2
Продолжительность : 1 ч. 51 м.
Битрейт : 192 Кбит/сек
Каналы : 2 канала
ChannelLayout : L R
Частота : 48,0 КГц
Частота кадров : 46,875 кадров/сек (1024 SPF)
Метод сжатия : С потерями
Размер потока : 153 Мбайт (4%)
Язык : Russian
Default : Да
Forced : Нет
Скриншоты:
       
Other forum [Profile] [PM]
Display posts from previous:    
Reply to topic

The time now is: Today 07:55

All times are GMT + 3 Hours



You cannot post new topics in this forum
You cannot reply to topics in this forum
You cannot edit your posts in this forum
You cannot delete your posts in this forum
You cannot vote in polls in this forum
You cannot attach files in this forum
You cannot download files in this forum