Today is a free download without charge Download

Райя и последний дракон / Raya and the Last Dragon (Дон Холл, Карлос Лопес Эстрада, Пол Бриггс) [2021 г., Мультфильм, фэнтези, боевик, комедия, приключения, семейный, WEB-DLRip]

Reply to topic
 
Author
Message

Mackfoy ®

Longevity: 8 years 10 months

Posts: 17

Торрент-статистика

Post 09-Mar-2021 12:58

[Quote]

Райя и последний дракон / Raya and the Last Dragon
Год выпуска: 2021
Страна: США
Жанр: Мультфильм, фэнтези, боевик, комедия, приключения, семейный
Перевод: Дублированный | Line | *Tnx KinoPub
Режиссер: Дон Холл, Карлос Лопес Эстрада, Пол Бриггс

В ролях: Келли Мари Трэн, Аквафина, Айзек Ванг, Джемма Чан, Дэниэл Дэ Ким, Бенедикт Вонг, Джона Сяо, Сандра О, Талия Чан, Люсиль Сун, Алан Тьюдик, Гордон Ип, Дичен Лакмэн, Патти Харрисон, Джонатан Пак, Сон Ган
Описание: Отважной воительнице по имени Райя и её верному спутнику Тук-Туку предстоит покинуть родное королевство Кумандра, чтобы отыскать последнего оставшегося в мире дракона, и с его помощью вернуть надежду на победу над могущественным врагом.
Качество: WEB-DLRip
Формат: MKV
Видео кодек: H.26x
Аудио кодек: AAC
Видео: 720x302 at 23.976 fps, x264@L4.1, ~889 kbps, 0.171 bpp
Аудио: AAC, 2 ch, ~78 kbps - | Русский |

M/I

x264 [info]: frame I:1401 Avg QP:15.77 size: 36757
x264 [info]: frame P:38574 Avg QP:19.57 size: 10301
x264 [info]: frame B:114635 Avg QP:21.50 size: 2308
x264 [info]: consecutive B-frames: 3.1% 2.8% 8.5% 48.8% 12.2% 18.7% 2.5% 2.5% 0.5%
General
Format : Matroska
Format version : Version 4
File size : 746 MiB
Duration : 1 h 47 min
Overall bit rate : 970 kb/s
Movie name : Райя и последний дракон.(2021).WEB-DLRip-AVC.[-=DoMiNo=-]
Encoded date : UTC 2021-03-08 15:06:41
Writing application : mkvmerge v44.0.0 ('Domino') 64-bit
Writing library : libebml v1.3.10 + libmatroska v1.5.2
Cover : Yes
Attachments : Cover.jpg / Cover 2.jpg
Video
ID : 1
Format : AVC
Format/Info : Advanced Video Codec
Format profile : High@L4.1
Format settings : CABAC / 14 Ref Frames
Format settings, CABAC : Yes
Format settings, Reference : 14 frames
Codec ID : V_MPEG4/ISO/AVC
Duration : 1 h 47 min
Bit rate : 889 kb/s
Width : 720 pixels
Height : 302 pixels
Display aspect ratio : 2.40:1
Frame rate mode : Constant
Frame rate : 23.976 (24000/1001) FPS
Color space : YUV
Chroma subsampling : 4:2:0
Bit depth : 8 bits
Scan type : Progressive
Bits/(Pixel*Frame) : 0.171
Stream size : 683 MiB (92%)
Title : -=DoMiNo=-
Writing library : x264 core 161 r3048 b86ae3c
Encoding settings : cabac=1 / ref=14 / deblock=1:-2:-1 / analyse=0x3:0x133 / me=umh / subme=10 / psy=1 / psy_rd=1.00:0.05 / mixed_ref=1 / me_range=32 / chroma_me=1 / trellis=2 / 8x8dct=1 / cqm=0 / deadzone=21,11 / fast_pskip=0 / chroma_qp_offset=-3 / threads=6 / lookahead_threads=1 / sliced_threads=0 / nr=0 / decimate=0 / interlaced=0 / bluray_compat=0 / constrained_intra=0 / bframes=8 / b_pyramid=2 / b_adapt=2 / b_bias=0 / direct=3 / weightb=1 / open_gop=0 / weightp=2 / keyint=250 / keyint_min=23 / scenecut=40 / intra_refresh=0 / rc_lookahead=120 / rc=2pass / mbtree=1 / bitrate=889 / ratetol=1.0 / qcomp=0.70 / qpmin=0 / qpmax=69 / qpstep=4 / cplxblur=20.0 / qblur=0.5 / vbv_maxrate=50000 / vbv_bufsize=62500 / nal_hrd=none / filler=0 / ip_ratio=1.40 / aq=1:1.00
Language : English
Default : Yes
Forced : No
Color range : Limited
Color primaries : BT.709
Transfer characteristics : BT.709
Matrix coefficients : BT.709
Audio
ID : 2
Format : AAC LC SBR
Format/Info : Advanced Audio Codec Low Complexity with Spectral Band Replication
Commercial name : HE-AAC
Format settings : Explicit
Codec ID : A_AAC-2
Duration : 1 h 47 min
Bit rate : 78.7 kb/s
Channel(s) : 2 channels
Channel layout : L R
Sampling rate : 48.0 kHz
Frame rate : 23.438 FPS (2048 SPF)
Compression mode : Lossy
Stream size : 60.5 MiB (8%)
Title : DOB
Language : Russian
Default : Yes
Forced : No
Text #1
ID : 3
Format : UTF-8
Codec ID : S_TEXT/UTF8
Codec ID/Info : UTF-8 Plain Text
Duration : 1 h 34 min
Bit rate : 84 b/s
Count of elements : 1256
Stream size : 58.3 KiB (0%)
Language : Russian
Default : No
Forced : No
Text #2
ID : 4
Format : UTF-8
Codec ID : S_TEXT/UTF8
Codec ID/Info : UTF-8 Plain Text
Duration : 1 h 37 min
Bit rate : 68 b/s
Count of elements : 1919
Stream size : 48.8 KiB (0%)
Language : English
Default : No
Forced : No
Menu
00:00:00.000 : :Глава 01
00:08:20.000 : :Глава 02
00:16:40.000 : :Глава 03
00:25:00.000 : :Глава 04
00:33:20.000 : :Глава 05
00:41:40.000 : :Глава 06
00:50:00.000 : :Глава 07
00:58:20.000 : :Глава 08
01:06:40.000 : :Глава 09
01:15:00.000 : :Глава 10
01:23:20.000 : :Глава 11
01:31:40.000 : :Глава 12
01:40:00.000 : :Глава 13

Скриншоты

       
Other forum [Profile] [PM]
Display posts from previous:    
Reply to topic

The time now is: Today 04:37

All times are GMT + 3 Hours



You cannot post new topics in this forum
You cannot reply to topics in this forum
You cannot edit your posts in this forum
You cannot delete your posts in this forum
You cannot vote in polls in this forum
You cannot attach files in this forum
You cannot download files in this forum