Today is a free download without charge Download

[Академия Excel] Дмитрий Якушев | Основы написания макросов в Excel (2019) PCRec

Reply to topic
 
Author
Message

}{@R0N ®

Longevity: 4 years 10 months

Posts: 7660

Торрент-статистика

Post 04-Sep-2020 09:51

[Quote]

Дмитрий Якушев
Основы написания макросов в Excel
- Автор: Дмитрий Якушев
Производство: Академия Excel
Жанр: MS Excel, VBA
Описание:
Программа обучения состоит из 11-ти модулей. Вы получите очень понятное изложение теории с решением практических задач.
Вы будете знать все необходимые конструкции, которые позволят написать макросы для автоматизации любых задач.
Вы получаете доступ к сборнику готовых макросов, которые можно просто брать и сразу применять для автоматизации своих задач. Уроки помогут разобраться в принципе работы команд. Вы сможете изменять эти примеры под ваши конкретные задачи.
Продолжительность: 16:16:59
Качество видео: PCRec
Видео: AVC/H.264, 1280x720, ~296 Kbps
Аудио: AAC, 2 ch, 126 Kbps

MediaInfo:

Общее
Полное имя : 1.1. Введение в макросы.mp4
Формат : MPEG-4
Профиль формата : Base Media / Version 2
Идентификатор кодека : mp42 (isom/mp42)
Размер файла : 26,7 Мбайт
Продолжительность : 8 м. 48 с.
Режим общего битрейта : Переменный
Общий поток : 425 Кбит/сек
Дата кодирования : UTC 2019-08-12 07:46:51
Дата пометки : UTC 2019-08-12 07:46:51
Видео
Идентификатор : 1
Формат : AVC
Формат/Информация : Advanced Video Codec
Профиль формата : [url=mailto:Main@L3.1]Main@L3.1[/url]
Настройки формата : CABAC / 3 Ref Frames
Параметр CABAC формата : Да
Параметр RefFrames формата : 3 кадра
Идентификатор кодека : avc1
Идентификатор кодека/Информация : Advanced Video Coding
Продолжительность : 8 м. 48 с.
Битрейт : 296 Кбит/сек
Ширина : 1 280 пикселей
Высота : 720 пикселей
Соотношение сторон : 16:9
Режим частоты кадров : Постоянный
Частота кадров : 30,000 кадров/сек
Стандарт вещания : NTSC
Цветовое пространство : YUV
Субдискретизация насыщенности : 4:2:0
Битовая глубина : 8 бит
Тип развёртки : Прогрессивная
Бит/(Пиксели*Кадры) : 0.011
Размер потока : 18,7 Мбайт (70%)
Язык : English
Дата кодирования : UTC 2019-08-12 07:46:51
Дата пометки : UTC 2019-08-12 07:46:51
Цветовой диапазон : Limited
Codec configuration box : avcC
Аудио
Идентификатор : 2
Формат : AAC LC
Формат/Информация : Advanced Audio Codec Low Complexity
Идентификатор кодека : mp4a-40-2
Продолжительность : 8 м. 48 с.
Вид битрейта : Переменный
Битрейт : 126 Кбит/сек
Максимальный битрейт : 406 Кбит/сек
Каналы : 2 канала
Channel layout : L R
Частота : 44,1 КГц
Частота кадров : 43,066 кадра/сек (1024 SPF)
Метод сжатия : С потерями
Размер потока : 7,91 Мбайт (30%)
Язык : English
Дата кодирования : UTC 2019-08-12 07:46:51
Дата пометки : UTC 2019-08-12 07:46:51
Скриншоты:
       
Other forum [Profile] [PM]
Display posts from previous:    
Reply to topic

The time now is: Today 09:39

All times are GMT + 3 Hours



You cannot post new topics in this forum
You cannot reply to topics in this forum
You cannot edit your posts in this forum
You cannot delete your posts in this forum
You cannot vote in polls in this forum
You cannot attach files in this forum
You cannot download files in this forum