Today is a free download without charge Download

Агент Ева / Ava (Тейт Тейлор) [2020 г., Боевик, триллер, драма, криминал, детектив, WEB-DL 1080p] MVO (AlphaProject)

Reply to topic
 
Author
Message

Theseus ®

Gender:

Longevity: 9 years

Posts: 2146

Торрент-статистика

Post 22-Aug-2020 21:30

[Quote]

Агент Ева / Ava- Год выхода: 2020
Страна: США
Жанр: Боевик, триллер, драма, криминал, детектив
Продолжительность: 01:37:09
Перевод: Многоголосый закадровый, любительский (AlphaProject)
Субтитры: Отсутствуют-Режиссер: Тейт Тейлор-В ролях: Джессика Честейн, Джон Малкович, Джесс Вейкслер, Коммон, Джина Дэвис, Колин Фаррелл, Диана Сильверс, Йоан Гриффит, Джоан Чэнь, Janelle Feigley-О фильме: Она умна, красива и чрезвычайно опасна. Перемещаясь по миру словно тень, агент по имени Ева в одиночку выполняет самые сложные задания своего руководства. Когда внезапно очередная спецоперация идет не по плану, и Ева решает выйти из игры, один из влиятельных боссов секретной службы открывает на неё охоту.- -[Качество: WEB-DL 1080p
Формат: MKV
Видео кодек: x.264
Аудио кодек: AC3
Видео: AVC, 1920x804 (2.40:1), 23,976 fps, 4 495 kb/s
Аудио 1: AC3, 48.0 kHz, 2 ch, 192 kb/s | RUS
Аудио 2: AC3, 48.0 kHz, 6 ch, 384 kb/s | ENG-Сэмпл-Рекламы нет- -

MediaInfo

Код:
Общее
Уникальный идентификатор                 : 191365446138922588063876814039206273462 (0x8FF7A4F11B556940BFB75363101321B6)
Полное имя                               : Eva.(2020).WEB-DL.1080p.mkv
Формат                                   : Matroska
Версия формата                           : Version 4
Размер файла                             : 3,44 Гбайт
Продолжительность                        : 1 ч. 37 м.
Общий поток                              : 5073 Кбит/сек
Дата кодирования                         : UTC 2020-08-22 16:17:04
Программа кодирования                    : mkvmerge v8.3.0 ('Over the Horizon') 64bit
Библиотека кодирования                   : libebml v1.3.1 + libmatroska v1.4.2
Видео
Идентификатор                            : 1
Формат                                   : AVC
Формат/Информация                        : Advanced Video Codec
Профиль формата                          : High@L4
Настройки формата                        : CABAC / 5 Ref Frames
Параметр CABAC формата                   : Да
Параметр RefFrames формата               : 5 кадров
Идентификатор кодека                     : V_MPEG4/ISO/AVC
Продолжительность                        : 1 ч. 37 м.
Битрейт                                  : 4495 Кбит/сек
Ширина                                   : 1920 пикселей
Высота                                   : 804 пикселя
Соотношение сторон                       : 2,40:1
Режим частоты кадров                     : Постоянный
Частота кадров                           : 23,976 (24000/1001) кадра/сек
Цветовое пространство                    : YUV
Субдискретизация насыщенности            : 4:2:0
Битовая глубина                          : 8 бит
Тип развёртки                            : Прогрессивная
Бит/(Пиксели*Кадры)                      : 0.121
Размер потока                            : 3,05 Гбайт (89%)
Язык                                     : English
Default                                  : Да
Forced                                   : Нет
Цветовой диапазон                        : Limited
Основные цвета                           : BT.709
Характеристики трансфера                 : BT.709
Коэффициенты матрицы                     : BT.709
Аудио #1
Идентификатор                            : 2
Формат                                   : AC-3
Формат/Информация                        : Audio Coding 3
Коммерческое название                    : Dolby Digital
Идентификатор кодека                     : A_AC3
Продолжительность                        : 1 ч. 36 м.
Вид битрейта                             : Постоянный
Битрейт                                  : 192 Кбит/сек
Каналы                                   : 2 канала
Channel layout                           : L R
Частота                                  : 48,0 КГц
Частота кадров                           : 31,250 кадров/сек (1536 SPF)
Битовая глубина                          : 16 бит
Метод сжатия                             : С потерями
Размер потока                            : 133 Мбайт (4%)
Заголовок                                : MVO | AlphaProject
Язык                                     : Russian
ServiceKind/String                       : Complete Main
Default                                  : Да
Forced                                   : Нет
Аудио #2
Идентификатор                            : 3
Формат                                   : AC-3
Формат/Информация                        : Audio Coding 3
Коммерческое название                    : Dolby Digital
Идентификатор кодека                     : A_AC3
Продолжительность                        : 1 ч. 37 м.
Вид битрейта                             : Постоянный
Битрейт                                  : 384 Кбит/сек
Каналы                                   : 6 каналов
Channel layout                           : L R C LFE Ls Rs
Частота                                  : 48,0 КГц
Частота кадров                           : 31,250 кадров/сек (1536 SPF)
Битовая глубина                          : 16 бит
Метод сжатия                             : С потерями
Размер потока                            : 267 Мбайт (8%)
Язык                                     : English
ServiceKind/String                       : Complete Main
Default                                  : Нет
Forced                                   : Нет
Текст #1
Идентификатор                            : 4
Формат                                   : UTF-8
Идентификатор кодека                     : S_TEXT/UTF8
Идентификатор кодека/Информация          : UTF-8 Plain Text
Продолжительность                        : 23 м. 15 с.
Битрейт                                  : 2 бит/сек
ElementCount                             : 18
Размер потока                            : 458 байт (0%)
Заголовок                                : Forced
Язык                                     : English
Default                                  : Нет
Forced                                   : Нет
Текст #2
Идентификатор                            : 5
Формат                                   : UTF-8
Идентификатор кодека                     : S_TEXT/UTF8
Идентификатор кодека/Информация          : UTF-8 Plain Text
Продолжительность                        : 1 ч. 31 м.
Битрейт                                  : 45 бит/сек
ElementCount                             : 1131
Размер потока                            : 30,4 Кбайт (0%)
Заголовок                                : Full
Язык                                     : English
Default                                  : Нет
Forced                                   : Нет
Меню
00:00:00.000                             : :Chapter 01
00:11:24.851                             : :Chapter 02
00:20:49.874                             : :Chapter 03
00:35:00.599                             : :Chapter 04
00:42:01.477                             : :Chapter 05
00:51:10.274                             : :Chapter 06
00:58:45.520                             : :Chapter 07
01:10:52.455                             : :Chapter 08
01:18:43.967                             : :Chapter 09
01:32:48.227                             : :Chapter 10

Трейлер

-    [- -

_________________
Other forum [Profile] [PM]

Dracula

Longevity: 7 years 5 months

Posts: 11214

Торрент-статистика

Post 20-Oct-2020 18:17 (after 1 month 28 days)

Топик был перенесен из форума Новинки (BD|HDTV|DVD) в форум Архив


БАНДИТ
 
Display posts from previous:    
Reply to topic

The time now is: Today 14:09

All times are GMT + 3 Hours



You cannot post new topics in this forum
You cannot reply to topics in this forum
You cannot edit your posts in this forum
You cannot delete your posts in this forum
You cannot vote in polls in this forum
You cannot attach files in this forum
You cannot download files in this forum