Today is a free download without charge Download

Wang Wei - 5 альбомов (2009 - 2010) [FLAC, APE|Lossless|image, tracks + .cue] <New Age, Instrumental, Piano>

Reply to topic
 
Author
Message

Soldat_5 ®

Longevity: 1 year

Posts: 151

Торрент-статистика

Post 08-Aug-2020 17:37

[Quote]

Wang Wei - 5 альбомов (2009 - 2010) - Страна: Китай
Жанр: New Age, Instrumental, Piano
Продолжительность: 04:12:29
Кодек: FLAC, APE
Битрейт: Lossless
Тип рипа: image, tracks + .cue
Наличие сканов в содержимом раздачи: Есть
Треклист:
Альбомы:
2009 - Equilibrium
2010 - Cinematic Piano
2010 - Love Songs On The Piano
2010 - Mandarin Folk Essence
2010 - Rose & Piano

2009 - Equilibrium

[img=right]http://nnmclub.ch/forum/image.php?link=https://a.ra...cb2898.jpg[/img]
Прoдолжительность: 00:41:28
Кодек: FLAC
Трeклист:
01. Pregnancy of Haze (04:40)
02. The Vault (04:52)
03. Ark (03:57)
04. Devices of Equilibrium (04:02)
05. Vertical and Horizon (04:01)
06. Leaning (04:23)
07. Eternity (03:38)
08. The Plough (03:36)
09. Parallel Lines (04:08)
10. Ashes of Ruins (04:11)

Лог audiochecker&#58;

AUDIOCHECKER v2.0 beta (build 457) - by Dester - [url=mailto:opdester@freemail.hu]opdester@freemail.hu[/url]
~~~~~~~~~~~~~~~~~~~~~~~~~~~~~~~~~~
-=== НЕ РЕДАКТИРУЙТЕ ЭТОТ ФАЙЛ! ===-
Путь: ...\2009 - Equilibrium
01 -=- 01. Pregnancy of Haze.flac -=- CDDA (100%)
02 -=- 02. The Vault.flac -=- CDDA (99%)
03 -=- 03. Ark.flac -=- CDDA (100%)
04 -=- 04. Devices of Equilibrium.flac -=- CDDA (100%)
05 -=- 05. Vertical and Horizon.flac -=- CDDA (100%)
06 -=- 06. Leaning.flac -=- CDDA (100%)
07 -=- 07. Eternity.flac -=- CDDA (100%)
08 -=- 08. The Plough.flac -=- CDDA (100%)
09 -=- 09. Parllel Lines.flac -=- CDDA (100%)
10 -=- 10. Ashes of Ruins.flac -=- CDDA (100%)
Сводка 99,90% CDDA
173793220

2010 - Cinematic Piano

[img=right]http://nnmclub.ch/forum/image.php?link=https://b.ra...7d015c.jpg[/img]
Прoдолжительность: 00:53:20
Кодек: APE
Трeклист:
01. You and Me (The Myth) (04:11)
02. Mulan star (04:27)
03. Love Transfering (04:21)
04. Boulevard of Broken Dreams (04:57)
05. Chrysanthemums Terrace (04:21)
06. Fly Me To Polaris (04:25)
07. Yuki No Hana (05:18)
08. He Sound of Wind (03:41)
09. Gloomy Flavour (04:36)
10. Love (04:41)
11. Meteor Rain (03:56)
12. Belong To (04:27)

Лог audiochecker&#58;

AUDIOCHECKER v2.0 beta (build 457) - by Dester - [url=mailto:opdester@freemail.hu]opdester@freemail.hu[/url]
~~~~~~~~~~~~~~~~~~~~~~~~~~~~~~~~~~
-=== НЕ РЕДАКТИРУЙТЕ ЭТОТ ФАЙЛ! ===-
Путь: ...\2010 - Cinematic Piano
01 -=- 01 You and Me (The Myth).ape -=- CDDA (100%)
02 -=- 02 Mulan star.ape -=- MPEG (97%)
03 -=- 03 Love Transfering.ape -=- CDDA (49%)
04 -=- 04 Boulevard of Broken Dreams.ape -=- MPEG (92%)
05 -=- 05 Chrysanthemums Terrace.ape -=- MPEG (91%)
06 -=- 06 Fly Me To Polaris.ape -=- MPEG (100%)
07 -=- 07 Yuki No Hana.ape -=- CDDA (42%)
08 -=- 08 He Sound of Wind.ape -=- CDDA (42%)
09 -=- 09 Gloomy Flavour.ape -=- CDDA (43%)
10 -=- 10 Love.ape -=- MPEG (89%)
11 -=- 11 Meteor Rain.ape -=- CDDA (100%)
12 -=- 12 Belong To.ape -=- CDDA (54%)
Сводка 38,42% CDDA
233198436

2010 - Love Songs On The Piano

[img=right]http://nnmclub.ch/forum/image.php?link=https://a.ra...770b9e.jpg[/img]
Прoдолжительность: 00:54:12
Кодек: APE
Трeклист:
01. Memory (04:14)
02. Because you loved me (04:32)
03. When you tell me that you love me (03:47)
04. Nothing gonna change my love for you (04:20)
05. Hero (04:31)
06. Right here waiting (04:25)
07. Greatest love of all (04:42)
08. Feelings (04:05)
09. Crazy (04:57)
10. Careless whisper (05:12)
11. Take a bow (04:31)
12. Over the rainbow (04:57)

Лог EAC&#58;

EAC 抓取日志文件从15. 八月t 2010, 21:35 用于 CD
未知艺术家 / 未知标题
使用驱动器 :PIONEER DVD-ROM DVD-130P Adapter: 2 ID: 1
读取模式 :不使用 C2,使用精确流, 禁用缓存的安全模式
读取偏移校正:0
读取 Lead-In 和 Lead-Out : 否
所用输出模式:内部 WAV 函数
44.100 Hz;16 Bit;立体声
其他选项 :
用静音填充抓取中丢失偏移的采样 : 是
去除首尾静音块 : 否
Win NT 及 2000 本地 Win32 接口
范围状态及错误
已选择范围
文件名 D:\情歌钢琴\CDImage.wav
峰值电平 96.8 %
范围质量 99.9 %
CRC C6BE2E12
复制成功
没有错误发生
状态报告结尾

2010 - Mandarin Folk Essence

[img=right]http://nnmclub.ch/forum/image.php?link=https://b.ra...c8e66a.jpg[/img]
Прoдолжительность: 00:49:44
Кодек: FLAC
Трeклист:
01 Butterfly Valley (04:31)
02 Old Man of Pottery Handiworks (05:27)
03 White Dunes (04:42)
04 Magic Spring (04:18)
05 The Cradle of Water (04:35)
06 Dragon of Samba (03:44)
07 The Light of Buddha (05:49)
08 The Joy of Sparrow (04:12)
09 Grass Dancing in the Wind (04:49)
10 Great Grandfather's Fishing (03:18)
11 Summer Solstice (04:19)

Лог EAC&#58;

Exact Audio Copy V0.99 prebeta 4 from 23. January 2008
EAC 抓取日志文件从12. 九月 2010, 8:02
王崴 / 水墨流觞
使用驱动器 :SONY CD-RW CRX195E1 Adapter: 0 ID: 0
读取模式 : 保护
使用精确流 : 是
废除音频缓冲 : 是
使用 C2 游标 : 否
读取偏移校正 : 12
读取 Lead-In 和 Lead-Out : 否
用静音填充抓取中丢失偏移的采样 : 是
去除首尾静音块 : 否
在 CRC 计算中使用了空样本 : 否
已用接口 : Win NT 及 2000 本地 Win32 接口
所用输出格式 : 用户定义的编码器
已选比特率 : 768 kBit/s
质量 : 高
新增 ID3 标签 : 否
命令行压缩器 : C:\Program Files\Exact Audio Copy\FLAC\FLAC.EXE
附加命令行参数 : -6 -V -T "ARTIST=%a" -T "TITLE=%t" -T "ALBUM=%g" -T "DATE=%y" -T "TRACKNUMBER=%n" -T "GENRE=%m" -T "COMMENT=%e" %s -o %d
被抓轨 CD 的 TOC
音轨 | 开始 | 长度 | 起始扇区 | 结尾扇区
--------------------------------------------------
1 | 0:00.00 | 4:30.72 | 0 | 20321
2 | 4:30.72 | 5:27.37 | 20322 | 44883
3 | 9:58.34 | 4:41.49 | 44884 | 66007
4 | 14:40.08 | 4:18.22 | 66008 | 85379
5 | 18:58.30 | 4:34.73 | 85380 | 106002
6 | 23:33.28 | 3:43.64 | 106003 | 122791
7 | 27:17.17 | 5:48.43 | 122792 | 148934
8 | 33:05.60 | 4:12.14 | 148935 | 167848
9 | 37:17.74 | 4:49.01 | 167849 | 189524
10 | 42:07.00 | 3:17.69 | 189525 | 204368
11 | 45:24.69 | 4:19.08 | 204369 | 223801
范围状态及错误
已选择范围
文件名 E:\music\temp\水墨流觞 FLDCD-024\王崴 - 水墨流觞.wav
峰值电平 98.5 %
范围质量 100.0 %
复制 CRC 3FAB9FE1
复制成功
没有错误发生
状态报告结尾

2010 - Rose &amp; Piano

[img=right]http://nnmclub.ch/forum/image.php?link=https://d.ra...1a9fbc.jpg[/img]
Прoдолжительность: 00:53:45
Кодек: APE
Трeклист:
01. The Invisible Wings (03:49)
02. Someone In The Night (04:12)
03. Pretty Love In Great City (04:02)
04. Still Here (04:14)
05. Heart Painting (03:39)
06. The Pale Moon (04:06)
07. Betrayal (04:33)
08. Listen To The Sea (04:21)
09. You're A Song In My Heart (03:28)
10. Love You Much (03:53)
11. Soulful Hug (03:51)
12. Can I Hold You (04:04)
13. It's Said Love Came Back (05:32)

Лог EAC&#58;

EAC 抓取日志文件从11. 二月 2010, 0:17 用于 CD
王崴 / 玫瑰钢琴
使用驱动器 :LITE-ON DVDRW LH-18A1P Adapter: 0 ID: 1
读取模式 :不使用 C2,使用精确流, 禁用缓存的安全模式
读取偏移校正:0
读取 Lead-In 和 Lead-Out : 否
所用输出模式:内部 WAV 函数
44.100 Hz;16 Bit;立体声
其他选项 :
用静音填充抓取中丢失偏移的采样 : 是
去除首尾静音块 : 否
Win NT 及 2000 本地 Win32 接口
范围状态及错误
已选择范围
文件名 E:\玫瑰钢琴\王崴 - 玫瑰钢琴.wav
峰值电平 96.8 %
范围质量 100.0 %
CRC 86A9610E
复制成功
没有错误发生
状态报告结尾
-
Other forum [Profile] [PM]
Display posts from previous:    
Reply to topic

The time now is: Today 10:17

All times are GMT + 3 Hours



You cannot post new topics in this forum
You cannot reply to topics in this forum
You cannot edit your posts in this forum
You cannot delete your posts in this forum
You cannot vote in polls in this forum
You cannot attach files in this forum
You cannot download files in this forum