Today is a free download without charge Download

Порнолоджи, или Милашка как ты / A Nice Girl Like You (Крис Райделл, Ник Райделл) [2020, Комедия, мелодрама, WEB-DLRip] [DUB] [iTunes]

Reply to topic
DL-List and Torrent activity
Size:  1.46 GB   |    Registered:  14 days   |    Completed:  0 times

Seeder not seen: 6 hours

 
 
 
 
 
Author
Message

K15 ®

Gender:

Longevity: 26 days

Posts: 21

Торрент-статистика

Post 21-Nov-2021 08:59

[Quote]

Информация о фильме
Название: Порнолоджи, или Милашка как ты
Оригинальное название: A Nice Girl Like You
Год выхода: 2020
Жанр: Комедия, мелодрама
Режиссер: Крис Райделл, Ник Райделл--В ролях: Люси Хейл, Минди Кон, Джеки Круз, Леонидас Гулаптис, Адхир Кальян, Стивен Фридрих, Скай П. Маршалл, Леа МакКендрик, Джина Пейнбьянко, Надя Куинн--О фильме: Если парень обвинил тебя в слишком большой скованности в сексуальной жизни и даже закрепощенности, есть два варианта, как с ним поступить: либо прибить его на месте, либо бросить... Люси талантливый музыкант и очаровательная девушка. Она составляет план с наиболее сумасшедшими идеями, которые должна реализовать, чтобы познать свои возможности и тайные желания.-- --Страна: США
Студия: Affirmative Entertainment, Caliwood Pictures, SPR Media
Продолжительность: 01:34:27
Перевод: Дублированный iTunes--Файл
Формат: AVI
Качество: WEB-DLRip
Видео: XviD, 1816 Кбит/с, 720x304
Аудио: Русский (AC3, 6 ch, 384 Кбит/с)
Субтитры: Нет--

Тех.данные видеофайла

Формат : AVI
Формат/Информация : Audio Video Interleave
Размер файла : 1,46 Гбайт
Продолжительность : 1 ч. 34 м.
Общий поток : 2 210 Кбит/сек
Название фильма : Милашка вроде тебя_2020_WEB-DLRip
Программа кодирования : VirtualDubMod 1.5.10.3 | www.virtualdub-fr.org || (build 2550/release)
Авторское право : порошков
Видео
Идентификатор : 0
Формат : MPEG-4 Visual
Профиль формата : Advanced Simple@L5
Настройки формата : BVOP1 / Custom Matrix
Параметр BVOP формата : 1
Параметр QPel формата : Нет
Параметр GMC формата : Без точки перехода
Параметр матрицы формата : Выборочная
Идентификатор кодека : XVID
Идентификатор кодека/Подсказка : XviD
Продолжительность : 1 ч. 34 м.
Битрейт : 1 816 Кбит/сек
Ширина : 720 пикселей
Высота : 304 пикселя
Соотношение сторон : 2,35:1
Частота кадров : 23,976 (24000/1001) кадра/сек
Цветовое пространство : YUV
Субдискретизация насыщенности : 4:2:0
Битовая глубина : 8 бит
Тип развёртки : Прогрессивная
Метод сжатия : С потерями
Бит/(Пиксели*Кадры) : 0.346
Размер потока : 1,20 Гбайт (82%)
Библиотека кодирования : XviD 73
Аудио
Идентификатор : 1
Формат : AC-3
Формат/Информация : Audio Coding 3
Коммерческое название : Dolby Digital
Идентификатор кодека : 2000
Продолжительность : 1 ч. 34 м.
Вид битрейта : Постоянный
Битрейт : 384 Кбит/сек
Каналы : 6 каналов
Channel layout : L R C LFE Ls Rs
Частота : 48,0 КГц
Частота кадров : 31,250 кадров/сек (1536 SPF)
Метод сжатия : С потерями
Размер потока : 259 Мбайт (17%)
Выравнивание : Разделение по промежуткам
Продолжительность промежутка : 42 мс. (1,00 видеокадр)
Время предзагрузки промежутка : 500 мс.
Service kind : Complete Main

Скриншоты

     
[darkos.club].t342812.torrent 
Torrent: Registered   [ 2021-11-21 08:59 ]

Download

15 KB

Воспроизвести онлайн

Status: checked
Completed: 0 times
Size: 1.46 GB, InfoHash (Google it!)
Score:  5 (vote: 2)
Default: 2  Thank you   (list)
 
Other forum [Profile] [PM]
Display posts from previous:    
Reply to topic

The time now is: Today 23:06

All times are GMT + 3 Hours



You cannot post new topics in this forum
You cannot reply to topics in this forum
You cannot edit your posts in this forum
You cannot delete your posts in this forum
You cannot vote in polls in this forum
You cannot attach files in this forum
You can download files in this forum