Today is a free download without charge Download

VA - Гитарный карнавал. Музыка вокруг света (2001) [FLAC|Lossless|tracks + .cue]<Instrumental, Guitar>

Reply to topic
 
Author
Message

Soldat_5 ®

Longevity: 1 year 10 months

Posts: 149

Торрент-статистика

Post 20-Aug-2021 17:24

[Quote]

VA - Гитарный карнавал. Музыка вокруг света (2001) - Год: 2001
Жанр: Instrumental, Guitar
Издание: РОФФ Текноглоджиз РТ/РА 06 06
Источник (релизер): eloychik®
Продолжительность: 01:00:57
Кодек: FLAC
Битрейт: Lossless
Тип рипа: tracks + .cue
Треклист:
01. Р. Файс ( гитара ) - К Жако ( Chez Jacquot ) 2:22
02. Г. Луковски ( гитара ) - Intergrando 2:39
03. Г. Луковски ( гитара ) - Спокойное утро ( La Matin calme ) 2:52
04. Г. Луковски ( гитара ) и М. Грауэлс ( флейта ) - Ария из "Бразильской бахианы" № 5 4:08
05. Г. Луковски ( гитара ) и М. Грауэлс ( флейта ) - Ночной клуб ( Night Club ) из сюиты "История танго" 5:50
06. Р. Файс, Л. Баджата ( гитары ), К. Мутон ( к.бас ) - Облака ( Nuages ) 7:58
07. Р. Файс, Л. Баджата ( гитары ), К. Мутон ( к.бас ) - Время свинга весной 4:17
08. К. Тирао ( гитара ) - Берлинская стена ( Berlinbaum ) 3:13
09. К. Тирао ( гитара ), А. Пиаццолла ( бандеон ) и Филармонический оркестр г. Льежа п.у. Л. Брауэра
- Посвящение Льежу ( Вступление. Милонга. Танго ) 14:23
10. Р. Файс ( гитара )- Мой друг Луко ( L'ami Luko ) 4:04
11. Р. Файс ( гитара ) - Импровизация 2:44
12. И. Судзуки ( гитара ) и Камерный оркестр п/у Л. Брауэра - Здесь и везде ( Here there & Everywhere ) 3:38
13. И. Судзуки ( гитара ) и Камерный оркестр п/у Л. Брауэра - Войди в мою жизнь ( Go to Get You Into My Life ) 2:08

Отчёт ЕАС&#58;

Код:
Exact Audio Copy V1.3 from 2. September 2016
Отчёт EAC об извлечении, выполненном 13. августа 2021, 23:10
Various Artists / Гитарный карнавал. Музыка вокруг света
Дисковод: ASUS    DRW-24D5MT   Adapter: 1  ID: 0
Режим чтения                 : Достоверность
Использование точного потока : Да
Отключение кэша аудио        : Да
Использование указателей C2  : Нет
Коррекция смещения при чтении                     : 6
Способность читать области Lead-in и Lead-out     : Нет
Заполнение пропущенных сэмплов тишиной            : Да
Удаление блоков с тишиной в начале и конце        : Нет
При вычислениях CRC использовались нулевые сэмплы : Да
Интерфейс                                         : Встроенный Win32-интерфейс для Win NT/2000
Обработка зазоров                                 : Добавлено к предыдущему треку
Выходной формат          : Пользовательский кодировщик
Выбранный битрейт        : 128 kBit/s
Качество                 : Высокий
Добавление ID3-тега      : Нет
Утилита сжатия           : C:\Program Files (x86)\Exact Audio Copy\Flac\flac.exe
Дополнительные параметры : -8 -V -T "TITLE=%title%" -T "ARTIST=%artist%" -T "ALBUMARTIST=%albumartist%" -T "ALBUM=%albumtitle%" -T "DATE=%year%" -T "TRACKNUMBER=%tracknr%" -T "TRACKTOTAL=%numtracks%" -T "GENRE=%genre%" -T "COMMENT=%comment%" -T "PERFORMER=%albuminterpret%" -T "COMPOSER=%composer%" %source% -o %dest%
TOC извлечённого CD
     Трек |   Старт  | Длительность | Начальный сектор | Конечный сектор
    ---------------------------------------------------------------------
       1  |  0:00.00 |    2:25.07   |           0      |      10881
       2  |  2:25.07 |    2:42.53   |       10882      |      23084
       3  |  5:07.60 |    2:55.27   |       23085      |      36236
       4  |  8:03.12 |    4:11.20   |       36237      |      55081
       5  | 12:14.32 |    5:53.18   |       55082      |      81574
       6  | 18:07.50 |    8:01.22   |       81575      |     117671
       7  | 26:08.72 |    4:20.53   |      117672      |     137224
       8  | 30:29.50 |    3:16.15   |      137225      |     151939
       9  | 33:45.65 |   14:26.20   |      151940      |     216909
      10  | 48:12.10 |    4:06.72   |      216910      |     235431
      11  | 52:19.07 |    2:47.08   |      235432      |     247964
      12  | 55:06.15 |    3:41.25   |      247965      |     264564
      13  | 58:47.40 |    2:09.32   |      264565      |     274271
Трек  1
     Имя файла E:\РАЗДАЧИ\NNM-Club.to\Various Artists - Гитарный карнавал (NNM-Club.to)\01 К Жако ( Chez Jacquot ).wav
     Длина предзазора  0:00:02.00
     Пиковый уровень 91.6 %
     Скорость извлечения 0.8 X
     Качество трека 99.9 %
     CRC теста 868D4E8C
     CRC копии 868D4E8C
     Точное извлечение (достоверность 1)  [4F0C1D41]  (AR v1)
     Копирование... OK
Трек  2
     Имя файла E:\РАЗДАЧИ\NNM-Club.to\Various Artists - Гитарный карнавал (NNM-Club.to)\02 Intergrando.wav
     Пиковый уровень 56.1 %
     Скорость извлечения 1.1 X
     Качество трека 100.0 %
     CRC теста 7C4E9E85
     CRC копии 7C4E9E85
     Точное извлечение (достоверность 1)  [5181C65C]  (AR v1)
     Копирование... OK
Трек  3
     Имя файла E:\РАЗДАЧИ\NNM-Club.to\Various Artists - Гитарный карнавал (NNM-Club.to)\03 Спокойное утро ( La Matin calme ).wav
     Пиковый уровень 36.2 %
     Скорость извлечения 1.2 X
     Качество трека 100.0 %
     CRC теста 52D81680
     CRC копии 52D81680
     Точное извлечение (достоверность 1)  [38271756]  (AR v1)
     Копирование... OK
Трек  4
     Имя файла E:\РАЗДАЧИ\NNM-Club.to\Various Artists - Гитарный карнавал (NNM-Club.to)\04 Ария из ''Бразильской бахианы'' № 5.wav
     Пиковый уровень 43.5 %
     Скорость извлечения 1.3 X
     Качество трека 100.0 %
     CRC теста 1F9AFA29
     CRC копии 1F9AFA29
     Точное извлечение (достоверность 1)  [149262C8]  (AR v1)
     Копирование... OK
Трек  5
     Имя файла E:\РАЗДАЧИ\NNM-Club.to\Various Artists - Гитарный карнавал (NNM-Club.to)\05 Ночной клуб ( Night Club ) из сюиты ''История танго''.wav
     Пиковый уровень 92.1 %
     Скорость извлечения 1.4 X
     Качество трека 99.9 %
     CRC теста 21C1E6A1
     CRC копии 21C1E6A1
     Точное извлечение (достоверность 1)  [A24B33D3]  (AR v1)
     Копирование... OK
Трек  6
     Имя файла E:\РАЗДАЧИ\NNM-Club.to\Various Artists - Гитарный карнавал (NNM-Club.to)\06 Облака ( Nuages ).wav
     Пиковый уровень 91.0 %
     Скорость извлечения 1.7 X
     Качество трека 100.0 %
     CRC теста 5A215170
     CRC копии 5A215170
     Точное извлечение (достоверность 1)  [109EA880]  (AR v1)
     Копирование... OK
Трек  7
     Имя файла E:\РАЗДАЧИ\NNM-Club.to\Various Artists - Гитарный карнавал (NNM-Club.to)\07 Время свинга весной.wav
     Пиковый уровень 88.4 %
     Скорость извлечения 1.7 X
     Качество трека 100.0 %
     CRC теста 83707B4E
     CRC копии 83707B4E
     Точное извлечение (достоверность 1)  [1403CFE0]  (AR v1)
     Копирование... OK
Трек  8
     Имя файла E:\РАЗДАЧИ\NNM-Club.to\Various Artists - Гитарный карнавал (NNM-Club.to)\08 Берлинская стена ( Berlinbaum ).wav
     Пиковый уровень 65.8 %
     Скорость извлечения 1.5 X
     Качество трека 99.9 %
     CRC теста 1C7EEB13
     CRC копии 1C7EEB13
     Точное извлечение (достоверность 1)  [40F46A22]  (AR v1)
     Копирование... OK
Трек  9
     Имя файла E:\РАЗДАЧИ\NNM-Club.to\Various Artists - Гитарный карнавал (NNM-Club.to)\09 Посвящение Льежу ( Вступление. Милонга. Танго ).wav
     Пиковый уровень 93.8 %
     Скорость извлечения 2.2 X
     Качество трека 100.0 %
     CRC теста 5EA26085
     CRC копии 5EA26085
     Точное извлечение (достоверность 1)  [F748A6AF]  (AR v1)
     Копирование... OK
Трек 10
     Имя файла E:\РАЗДАЧИ\NNM-Club.to\Various Artists - Гитарный карнавал (NNM-Club.to)\10 Мой друг Луко ( L'ami Luko ).wav
     Пиковый уровень 69.5 %
     Скорость извлечения 1.9 X
     Качество трека 99.9 %
     CRC теста 8593CB7D
     CRC копии 8593CB7D
     Точное извлечение (достоверность 1)  [39FECC1C]  (AR v1)
     Копирование... OK
Трек 11
     Имя файла E:\РАЗДАЧИ\NNM-Club.to\Various Artists - Гитарный карнавал (NNM-Club.to)\11 Импровизация.wav
     Пиковый уровень 55.4 %
     Скорость извлечения 2.0 X
     Качество трека 100.0 %
     CRC теста 0E265EB0
     CRC копии 0E265EB0
     Точное извлечение (достоверность 1)  [08A92AEE]  (AR v1)
     Копирование... OK
Трек 12
     Имя файла E:\РАЗДАЧИ\NNM-Club.to\Various Artists - Гитарный карнавал (NNM-Club.to)\12 Здесь и везде ( Here there & Everywhere ).wav
     Пиковый уровень 50.7 %
     Скорость извлечения 2.2 X
     Качество трека 100.0 %
     CRC теста FED09B64
     CRC копии FED09B64
     Точное извлечение (достоверность 1)  [540D84FB]  (AR v1)
     Копирование... OK
Трек 13
     Имя файла E:\РАЗДАЧИ\NNM-Club.to\Various Artists - Гитарный карнавал (NNM-Club.to)\13 Войди в мою жизнь ( Go to Get You Into My Life ).wav
     Пиковый уровень 89.0 %
     Скорость извлечения 2.0 X
     Качество трека 100.0 %
     CRC теста 0D8C5D27
     CRC копии 0D8C5D27
     Точное извлечение (достоверность 1)  [F1C88F34]  (AR v1)
     Копирование... OK
Все треки извлечены точно
Ошибок не произошло
Конец отчёта
==== Контрольная сумма отчёта 632988D9D83A5B318473CFD59145BA4CD1BA6229DCDE62F2C9D163F3B665620C ====
Время раздачи: Пн-Пт с 17:00 до 20:00 и по возможности
Other forum [Profile] [PM]
Display posts from previous:    
Reply to topic

The time now is: Today 16:04

All times are GMT + 3 Hours



You cannot post new topics in this forum
You cannot reply to topics in this forum
You cannot edit your posts in this forum
You cannot delete your posts in this forum
You cannot vote in polls in this forum
You cannot attach files in this forum
You cannot download files in this forum