Today is a free download without charge Download

Бендер: Начало (Игорь Зайцев) [2021, Россия, приключения, комедия, WEB-DL 1080p]

Reply to topic
 
Author
Message

}{@R0N ®

Longevity: 5 years 10 months

Posts: 7664

Торрент-статистика

Post 06-Aug-2021 13:08

[Quote]

Бендер: Начало-
Производство: Россия, Продюсерская компания «Среда»
Жанр: Комедия, приключения
Режиссер: Игорь Зайцев
Продюсер: Александр Цекало, Иван Самохвалов, Варя Авдюшко
Актеры: Сергей Безруков, Арам Вардеванян, Никита Кологривый, Таисия Вилкова, Эдуард Орлов, Александр Цекало, Юлия Рутберг, Ольга Сутулова, Гарик Харламов, Артем Ткаченко
Описание:
1919 год. Судьба сталкивает юного идеалиста Осю с турецко-подданным аферистом Ибрагимом Бендером. И никогда бы честный Ося не связался с таким бессовестным и хитроумным мошенником, если бы их не объединила невероятно опасная авантюра — охота за царской реликвией, драгоценным жезлом, заполучить который также не прочь местные бандиты и белые офицеры. В череде головокружительных приключений Ося вынужден учиться у Ибрагима обаятельной лести, деликатному обману, пленительному шантажу и… грубой силе. И все это — будучи влюбленным в самую чистую девушку города! И, кажется, еще в одну — роковую иностранную красотку…
Так начинает складываться портрет легендарного великого комбинатора и любимца женщин Остапа Бендера-Задунайского.


Возраст: 16+ (зрителям, достигшим 16 лет)
Дата российской премьеры: 24 июня 2021, «Централ Партнершип»
Продолжительность: 01:33:03
Перевод: Не требуется (Русский)
Субтитры: Отсутствуют-Качество: WEB-DL 1080p
Контейнер: MKV
Видео: MPEG-4 (AVC), 1920х804 (2.40:1), 25 fps, ~ 6000 kbps, 0.155 bit/pixel
Аудио: E-AC3, 48 kHz, 6 ch, 448 Kbps-

Релиз

Цитата:
- Источник КиноПоиск HD (чистый видеоряд).

MediaInfo

Код:
General
Unique ID                                : 23310220263461887390506298955469487054 (0x1189629753B466F42E2CEED752A0FBCE)
Complete name                            : Bender.Nachalo.2021.1080p.KP.WEB-DL.DDP5.1.H.264-EniaHD.mkv
Format                                   : Matroska
Format version                           : Version 4
File size                                : 4.17 GiB
Duration                                 : 1 h 33 min
Overall bit rate                         : 6 422 kb/s
Writing application                      : mkvmerge v60.0.0 ('Are We Copies?') 64-bit
Writing library                          : libebml v1.4.2 + libmatroska v1.6.4
Video
ID                                       : 1
Format                                   : AVC
Format/Info                              : Advanced Video Codec
Format profile                           : High@L4
Format settings                          : CABAC / 5 Ref Frames
Format settings, CABAC                   : Yes
Format settings, Reference frames        : 5 frames
Codec ID                                 : V_MPEG4/ISO/AVC
Duration                                 : 1 h 33 min
Bit rate                                 : 6 000 kb/s
Width                                    : 1 920 pixels
Height                                   : 804 pixels
Display aspect ratio                     : 2.40:1
Frame rate mode                          : Constant
Frame rate                               : 25.000 FPS
Color space                              : YUV
Chroma subsampling                       : 4:2:0
Bit depth                                : 8 bits
Scan type                                : Progressive
Bits/(Pixel*Frame)                       : 0.155
Stream size                              : 3.88 GiB (93%)
Writing library                          : x264 core 157
Encoding settings                        : cabac=1 / ref=5 / deblock=1:0:0 / analyse=0x3:0x133 / me=umh / subme=10 / psy=1 / psy_rd=1.00:0.00 / mixed_ref=1 / me_range=24 / chroma_me=1 / trellis=2 / 8x8dct=1 / cqm=0 / deadzone=21,11 / fast_pskip=1 / chroma_qp_offset=-2 / threads=25 / lookahead_threads=4 / sliced_threads=0 / nr=0 / decimate=1 / interlaced=0 / bluray_compat=0 / constrained_intra=0 / bframes=8 / b_pyramid=2 / b_adapt=2 / b_bias=0 / direct=3 / weightb=1 / open_gop=0 / weightp=2 / keyint=200 / keyint_min=100 / scenecut=40 / intra_refresh=0 / rc_lookahead=60 / rc=2pass / mbtree=1 / bitrate=6000 / ratetol=1.0 / qcomp=0.60 / qpmin=0 / qpmax=69 / qpstep=4 / cplxblur=20.0 / qblur=0.5 / vbv_maxrate=6600 / vbv_bufsize=9000 / nal_hrd=none / filler=0 / ip_ratio=1.40 / aq=1:1.00
Default                                  : Yes
Forced                                   : No
Audio
ID                                       : 2
Format                                   : E-AC-3
Format/Info                              : Enhanced AC-3
Commercial name                          : Dolby Digital Plus
Codec ID                                 : A_EAC3
Duration                                 : 1 h 33 min
Bit rate mode                            : Constant
Bit rate                                 : 448 kb/s
Channel(s)                               : 6 channels
Channel layout                           : L R C LFE Ls Rs
Sampling rate                            : 48.0 kHz
Frame rate                               : 31.250 FPS (1536 SPF)
Compression mode                         : Lossy
Stream size                              : 298 MiB (7%)
Language                                 : Russian
Service kind                             : Complete Main
Default                                  : Yes
Forced                                   : No
Скриншоты:
       
Other forum [Profile] [PM]
Display posts from previous:    
Reply to topic

The time now is: Today 15:39

All times are GMT + 3 Hours



You cannot post new topics in this forum
You cannot reply to topics in this forum
You cannot edit your posts in this forum
You cannot delete your posts in this forum
You cannot vote in polls in this forum
You cannot attach files in this forum
You cannot download files in this forum