Today is a free download without charge Download

(EuroDisco, Pop) Fancy - Masquerade (Les Marionnettes) - 2021 [FLAC, tracks +.cue, lossless]

Reply to topic
 
Author
Message

sergej644 ®

Gender:

Longevity: 8 years 11 months

Posts: 651

Location: Klaipeda

Торрент-статистика

Post 22-Jul-2021 02:36

[Quote]

-Fancy - Masquerade (Les Marionnettes)--
Год издания: 2021
Страна: Germany
Жанр: EuroDisco, Pop
Продолжительность: 01:01:47-Лейбл издания: Original Records
Страна-выпуска диска: EU
Номер по каталогу: OR2104-Формат: FLAC
Битрейт аудио: Lossless
Тип рипа: tracks +.cue
Наличие сканов в содержимом раздачи: да
-

Трэклист


01. I Like Your Smile (3:15)
02. Rockabye Me (3:54)
03. I'm Still A Fool (3:33)
04. Lovers (3:27)
05. Lost In Music (4:02)
06. Take Your Time (3:25)
07. Losing Control (3:14)
08. Tonight (3:19)
09. You Can Feel The Beat (2:31)
10. Summer Wine (4:08)
11. Flames Of Love (Bobby To Mix) (3:34)
12. My Way (5:16)
13. I Like Your Smile (Extended) (6:42)
14. Lovers (Extended) (6:03)
15. Flames Of Love (Bobby To Mix Extended) (5:31)
-

Лог создания рипа

Код:
Exact Audio Copy V1.0 beta 3 from 29. August 2011
EAC extraction logfile from 13. July 2021, 16:44
Fancy / Masquerade (Les Marionnettes)
Used drive  : ASUS    BW-16D1HT   Adapter: 1  ID: 0
Read mode               : Secure
Utilize accurate stream : Yes
Defeat audio cache      : Yes
Make use of C2 pointers : No
Read offset correction                      : 6
Overread into Lead-In and Lead-Out          : No
Fill up missing offset samples with silence : Yes
Delete leading and trailing silent blocks   : No
Null samples used in CRC calculations       : Yes
Used interface                              : Native Win32 interface for Win NT & 2000
Gap handling                                : Appended to previous track
Used output format              : User Defined Encoder
Selected bitrate                : 128 kBit/s
Quality                         : High
Add ID3 tag                     : No
Command line compressor         : C:\Program Files (x86)\FLAC\flac.exe
Additional command line options : -V -8 -T "Genre=%genre%" -T "Artist=%artist%" -T "Title=%title%" -T "Album=%albumtitle%" -T "Date=%year%" -T "Tracknumber=%tracknr%" -T "Comment=%comment%" %source%
TOC of the extracted CD
     Track |   Start  |  Length  | Start sector | End sector
    ---------------------------------------------------------
        1  |  0:00.00 |  3:14.52 |         0    |    14601
        2  |  3:14.52 |  3:53.62 |     14602    |    32138
        3  |  7:08.39 |  3:32.20 |     32139    |    48058
        4  | 10:40.59 |  3:26.53 |     48059    |    63561
        5  | 14:07.37 |  4:01.05 |     63562    |    81641
        6  | 18:08.42 |  3:24.28 |     81642    |    96969
        7  | 21:32.70 |  3:13.32 |     96970    |   111476
        8  | 24:46.27 |  3:18.05 |    111477    |   126331
        9  | 28:04.32 |  2:30.10 |    126332    |   137591
       10  | 30:34.42 |  4:07.12 |    137592    |   156128
       11  | 34:41.54 |  3:33.65 |    156129    |   172168
       12  | 38:15.44 |  5:15.52 |    172169    |   195845
       13  | 43:31.21 |  6:41.52 |    195846    |   225972
       14  | 50:12.73 |  6:02.60 |    225973    |   253182
       15  | 56:15.58 |  5:30.52 |    253183    |   277984
Track  1
     Filename D:\Fancy - Masquerade (Les Marionnettes) (Original Records, OR2104, CD) (2021)\01 - I Like Your Smile.wav
     Pre-gap length  0:00:02.00
     Peak level 100.0 %
     Extraction speed 4.2 X
     Track quality 100.0 %
     Test CRC 299877A4
     Copy CRC 299877A4
     Track not present in AccurateRip database
     Copy OK
Track  2
     Filename D:\Fancy - Masquerade (Les Marionnettes) (Original Records, OR2104, CD) (2021)\02 - Rockabye Me.wav
     Peak level 99.9 %
     Extraction speed 4.8 X
     Track quality 100.0 %
     Test CRC 1EC5BEFD
     Copy CRC 1EC5BEFD
     Track not present in AccurateRip database
     Copy OK
Track  3
     Filename D:\Fancy - Masquerade (Les Marionnettes) (Original Records, OR2104, CD) (2021)\03 - I'm Still A Fool.wav
     Peak level 100.0 %
     Extraction speed 5.0 X
     Track quality 100.0 %
     Test CRC 803DD046
     Copy CRC 803DD046
     Track not present in AccurateRip database
     Copy OK
Track  4
     Filename D:\Fancy - Masquerade (Les Marionnettes) (Original Records, OR2104, CD) (2021)\04 - Lovers.wav
     Peak level 100.0 %
     Extraction speed 5.4 X
     Track quality 100.0 %
     Test CRC 02C26171
     Copy CRC 02C26171
     Track not present in AccurateRip database
     Copy OK
Track  5
     Filename D:\Fancy - Masquerade (Les Marionnettes) (Original Records, OR2104, CD) (2021)\05 - Lost In Music.wav
     Peak level 99.9 %
     Extraction speed 5.9 X
     Track quality 100.0 %
     Test CRC BC422E98
     Copy CRC BC422E98
     Track not present in AccurateRip database
     Copy OK
Track  6
     Filename D:\Fancy - Masquerade (Les Marionnettes) (Original Records, OR2104, CD) (2021)\06 - Take Your Time.wav
     Peak level 94.4 %
     Extraction speed 6.1 X
     Track quality 100.0 %
     Test CRC 7ECA1873
     Copy CRC 7ECA1873
     Track not present in AccurateRip database
     Copy OK
Track  7
     Filename D:\Fancy - Masquerade (Les Marionnettes) (Original Records, OR2104, CD) (2021)\07 - Losing Control.wav
     Peak level 100.0 %
     Extraction speed 6.3 X
     Track quality 100.0 %
     Test CRC 293165FB
     Copy CRC 293165FB
     Track not present in AccurateRip database
     Copy OK
Track  8
     Filename D:\Fancy - Masquerade (Les Marionnettes) (Original Records, OR2104, CD) (2021)\08 - Tonight.wav
     Peak level 100.0 %
     Extraction speed 6.7 X
     Track quality 100.0 %
     Test CRC 8442C4EC
     Copy CRC 8442C4EC
     Track not present in AccurateRip database
     Copy OK
Track  9
     Filename D:\Fancy - Masquerade (Les Marionnettes) (Original Records, OR2104, CD) (2021)\09 - You Can Feel The Beat.wav
     Peak level 100.0 %
     Extraction speed 6.5 X
     Track quality 100.0 %
     Test CRC 8A703FD1
     Copy CRC 8A703FD1
     Track not present in AccurateRip database
     Copy OK
Track 10
     Filename D:\Fancy - Masquerade (Les Marionnettes) (Original Records, OR2104, CD) (2021)\10 - Summer Wine.wav
     Peak level 100.0 %
     Extraction speed 7.4 X
     Track quality 100.0 %
     Test CRC 76602D6C
     Copy CRC 76602D6C
     Track not present in AccurateRip database
     Copy OK
Track 11
     Filename D:\Fancy - Masquerade (Les Marionnettes) (Original Records, OR2104, CD) (2021)\11 - Flames Of Love (Bobby To Mix).wav
     Peak level 100.0 %
     Extraction speed 7.3 X
     Track quality 100.0 %
     Test CRC AE351D92
     Copy CRC AE351D92
     Track not present in AccurateRip database
     Copy OK
Track 12
     Filename D:\Fancy - Masquerade (Les Marionnettes) (Original Records, OR2104, CD) (2021)\12 - My Way.wav
     Peak level 100.0 %
     Extraction speed 7.3 X
     Track quality 99.9 %
     Test CRC 821E712A
     Copy CRC 821E712A
     Track not present in AccurateRip database
     Copy OK
Track 13
     Filename D:\Fancy - Masquerade (Les Marionnettes) (Original Records, OR2104, CD) (2021)\13 - I Like Your Smile (Extended).wav
     Peak level 100.0 %
     Extraction speed 8.0 X
     Track quality 99.9 %
     Test CRC FAFC2585
     Copy CRC FAFC2585
     Track not present in AccurateRip database
     Copy OK
Track 14
     Filename D:\Fancy - Masquerade (Les Marionnettes) (Original Records, OR2104, CD) (2021)\14 - Lovers (Extended).wav
     Peak level 98.2 %
     Extraction speed 9.0 X
     Track quality 100.0 %
     Test CRC 227041DA
     Copy CRC 227041DA
     Track not present in AccurateRip database
     Copy OK
Track 15
     Filename D:\Fancy - Masquerade (Les Marionnettes) (Original Records, OR2104, CD) (2021)\15 - Flames Of Love (Bobby To Mix Extended).wav
     Peak level 100.0 %
     Extraction speed 8.3 X
     Track quality 99.9 %
     Test CRC D419DF5C
     Copy CRC D419DF5C
     Track not present in AccurateRip database
     Copy OK
None of the tracks are present in the AccurateRip database
No errors occurred
End of status report

Индексная карта (non-compilant .cue)

Код:
REM GENRE Pop
REM DATE 2021
REM DISCID D90E7A0F
REM COMMENT "ExactAudioCopy v1.0b3"
PERFORMER "Fancy"
TITLE "Masquerade (Les Marionnettes)"
FILE "01 - I Like Your Smile.wav" WAVE
  TRACK 01 AUDIO
    TITLE "I Like Your Smile"
    PERFORMER "Fancy"
    ISRC ES03A2100004
    INDEX 01 00:00:00
FILE "02 - Rockabye Me.wav" WAVE
  TRACK 02 AUDIO
    TITLE "Rockabye Me"
    PERFORMER "Fancy"
    ISRC DEP551918556
    INDEX 01 00:00:00
FILE "03 - I'm Still A Fool.wav" WAVE
  TRACK 03 AUDIO
    TITLE "I'm Still A Fool"
    PERFORMER "Fancy"
    ISRC ES03A2100010
    INDEX 01 00:00:00
FILE "04 - Lovers.wav" WAVE
  TRACK 04 AUDIO
    TITLE "Lovers"
    PERFORMER "Fancy"
    ISRC ES03A2100008
    INDEX 01 00:00:00
FILE "05 - Lost In Music.wav" WAVE
  TRACK 05 AUDIO
    TITLE "Lost In Music"
    PERFORMER "Fancy"
    ISRC DEP551918553
    INDEX 01 00:00:00
FILE "06 - Take Your Time.wav" WAVE
  TRACK 06 AUDIO
    TITLE "Take Your Time"
    PERFORMER "Fancy"
    ISRC DEP551918557
    INDEX 01 00:00:00
FILE "07 - Losing Control.wav" WAVE
  TRACK 07 AUDIO
    TITLE "Losing Control"
    PERFORMER "Fancy"
    ISRC ES03A2100012
    INDEX 01 00:00:00
FILE "08 - Tonight.wav" WAVE
  TRACK 08 AUDIO
    TITLE "Tonight"
    PERFORMER "Fancy"
    ISRC ES03A2100012
    INDEX 01 00:00:00
FILE "09 - You Can Feel The Beat.wav" WAVE
  TRACK 09 AUDIO
    TITLE "You Can Feel The Beat"
    PERFORMER "Fancy"
    ISRC ES03A2100006
    INDEX 01 00:00:00
FILE "10 - Summer Wine.wav" WAVE
  TRACK 10 AUDIO
    TITLE "Summer Wine"
    PERFORMER "Fancy"
    ISRC ES03A2100018
    INDEX 01 00:00:00
FILE "11 - Flames Of Love (Bobby To Mix).wav" WAVE
  TRACK 11 AUDIO
    TITLE "Flames Of Love (Bobby To Mix)"
    PERFORMER "Fancy"
    ISRC ES03A2100016
    INDEX 01 00:00:00
FILE "12 - My Way.wav" WAVE
  TRACK 12 AUDIO
    TITLE "My Way"
    PERFORMER "Fancy"
    ISRC DEP551921148
    INDEX 01 00:00:00
FILE "13 - I Like Your Smile (Extended).wav" WAVE
  TRACK 13 AUDIO
    TITLE "I Like Your Smile (Extended)"
    PERFORMER "Fancy"
    ISRC ES03A2100005
    INDEX 01 00:00:00
FILE "14 - Lovers (Extended).wav" WAVE
  TRACK 14 AUDIO
    TITLE "Lovers (Extended)"
    PERFORMER "Fancy"
    ISRC ES03A2100009
    INDEX 01 00:00:00
FILE "15 - Flames Of Love (Bobby To Mix Extended).wav" WAVE
  TRACK 15 AUDIO
    TITLE "Flames Of Love (Bobby To Mix Extended)"
    PERFORMER "Fancy"
    ISRC ES03A2100009
    INDEX 01 00:00:00
-

для ознакомления:

--

_________________
У нас все платно: родиться, учиться, жениться, лечиться, умереть.
Бесплатно разрешено только работать.
Other forum [Profile] [PM]
Display posts from previous:    
Reply to topic

The time now is: Today 08:02

All times are GMT + 3 Hours



You cannot post new topics in this forum
You cannot reply to topics in this forum
You cannot edit your posts in this forum
You cannot delete your posts in this forum
You cannot vote in polls in this forum
You cannot attach files in this forum
You cannot download files in this forum