Today is a free download without charge Download

Дылда (Кантемир Балагов) [2019, Драма, военный, BDRip 720p] [US Transfer] (Лицензия) + Sub (Eng)

Reply to topic
 
Author
Message

Kon912 ®

Gender:

Longevity: 1 year 6 months

Posts: 294

Location: Питер

Торрент-статистика

Post 04-Jun-2020 00:24

[Quote]

Дылда- Год выхода: 2019
Страна: Россия
Студия: Нон-стоп Продакшн
Продолжительность: 02:17:31
Жанр: Драма, военный
Перевод: Не требуется | Лицензия Blu-ray US-Режиссер:
Кантемир Балагов-В ролях:
Виктория Мирошниченко, Василиса Перелыгина, Андрей Быков, Игорь Широков, Константин Балакирев, Ксения Кутепова, Ольга Драгунова, Тимофей Глазков, Филипп Жлоба, Наталия Кутанина-О фильме:
История двух молодых женщин-фронтовичек, которые возвращаются в послевоенный Ленинград и пытаются обрести новую мирную жизнь, когда и вокруг, и главное, внутри них — руины.- -Качество: BDRip 720p
Формат: MKV
Кодек: MPEG-4 AVC
Видео: 1280x694 (1,85:1), 23,976 fps, MPEG-4 AVC ~ 9993 Кbps avg, 0.469 bit/pixel
Аудио: AC3, 48 kHz, 6 ch, ~640.00 kbps avg | русский | Blu-ray US
Аудио: DTS, 48 kHz, 6 ch, ~1510.00 kbps avg | русский | Blu-ray US
Субтитры: Английские (Forced)-

Инфо-файл

Общее
Уникальный идентификатор : 77979672848821834454077184899375283563 (0x3AAA56B4FF6D254A559CDE47C2E1BD6B)
Полное имя : Dylda.2020.720p.BluRay.DTS.x264.mkv
Формат : Matroska
Версия формата : Version 4
Размер файла : 11,7 Гбайт
Продолжительность : 2 ч. 17 м.
Общий поток : 12,1 Мбит/сек
Название фильма : Дылда (2019)
Дата кодирования : UTC 2020-06-03 17:54:55
Программа кодирования : mkvmerge v47.0.0 ('Black Flag') 64-bit
Библиотека кодирования : libebml v1.3.10 + libmatroska v1.5.2
Обложка : Yes
Attachments : cover.jpg
Видео
Идентификатор : 1
Формат : AVC
Формат/Информация : Advanced Video Codec
Профиль формата : High@L4.1
Настройки формата : CABAC / 8 Ref Frames
Параметр CABAC формата : Да
Параметр RefFrames формата : 8 кадров
Идентификатор кодека : V_MPEG4/ISO/AVC
Продолжительность : 2 ч. 17 м.
Битрейт : 9 993 Кбит/сек
Ширина : 1 280 пикселей
Высота : 694 пикселя
Соотношение сторон : 1,85:1
Режим частоты кадров : Постоянный
Частота кадров : 23,976 (24000/1001) кадра/сек
Цветовое пространство : YUV
Субдискретизация насыщенности : 4:2:0
Битовая глубина : 8 бит
Тип развёртки : Прогрессивная
Бит/(Пиксели*Кадры) : 0.469
Размер потока : 9,60 Гбайт (82%)
Библиотека кодирования : x264 core 160 r3000 33f9e14
Настройки программы : cabac=1 / ref=8 / deblock=1:-3:-3 / analyse=0x3:0x133 / me=umh / subme=9 / psy=1 / psy_rd=1.00:0.00 / mixed_ref=1 / me_range=32 / chroma_me=1 / trellis=2 / 8x8dct=1 / cqm=0 / deadzone=21,11 / fast_pskip=0 / chroma_qp_offset=-2 / threads=22 / lookahead_threads=3 / sliced_threads=0 / nr=0 / decimate=0 / interlaced=0 / bluray_compat=0 / constrained_intra=0 / bframes=9 / b_pyramid=2 / b_adapt=2 / b_bias=0 / direct=3 / weightb=1 / open_gop=0 / weightp=2 / keyint=250 / keyint_min=23 / scenecut=40 / intra_refresh=0 / rc=crf / mbtree=0 / crf=18.0 / qcomp=0.60 / qpmin=0 / qpmax=69 / qpstep=4 / ip_ratio=1.40 / pb_ratio=1.30 / aq=3:0.88
Default : Да
Forced : Нет
Цветовой диапазон : Limited
Основные цвета : BT.709
Характеристики трансфера : BT.709
Коэффициенты матрицы : BT.709
Аудио #1
Идентификатор : 2
Формат : AC-3
Формат/Информация : Audio Coding 3
Коммерческое название : Dolby Digital
Идентификатор кодека : A_AC3
Продолжительность : 2 ч. 17 м.
Вид битрейта : Постоянный
Битрейт : 640 Кбит/сек
Каналы : 6 каналов
Channel layout : L R C LFE Ls Rs
Частота : 48,0 КГц
Частота кадров : 31,250 кадров/сек (1536 SPF)
Метод сжатия : С потерями
Размер потока : 630 Мбайт (5%)
Заголовок : Blu-ray US
Язык : Russian
Default : Да
Forced : Да
Аудио #2
Идентификатор : 3
Формат : DTS
Формат/Информация : Digital Theater Systems
Идентификатор кодека : A_DTS
Продолжительность : 2 ч. 17 м.
Вид битрейта : Постоянный
Битрейт : 1 510 Кбит/сек
Каналы : 6 каналов
Channel layout : C L R Ls Rs LFE
Частота : 48,0 КГц
Частота кадров : 93,750 кадра/сек (512 SPF)
Битовая глубина : 24 бит
Метод сжатия : С потерями
Размер потока : 1,45 Гбайт (12%)
Заголовок : Blu-ray US
Язык : Russian
Default : Нет
Forced : Нет
Текст
Идентификатор : 4
Формат : UTF-8
Идентификатор кодека : S_TEXT/UTF8
Идентификатор кодека/Информация : UTF-8 Plain Text
Продолжительность : 2 ч. 11 м.
Битрейт : 20 бит/сек
Count of elements : 884
Размер потока : 20,1 Кбайт (0%)
Заголовок : Forced
Язык : English
Default : Нет
Forced : Нет
Меню
00:00:00.000 : en:Chapter 01
00:13:12.333 : en:Chapter 02
00:27:17.719 : en:Chapter 03
00:39:30.410 : en:Chapter 04
00:52:52.419 : en:Chapter 05
01:04:27.113 : en:Chapter 06
01:17:39.822 : en:Chapter 07
01:31:40.245 : en:Chapter 08
01:48:10.359 : en:Chapter 09
02:02:24.379 : en:Chapter 10

Скриншоты

         
Other forum [Profile] [PM]
Display posts from previous:    
Reply to topic

The time now is: Today 23:54

All times are GMT + 3 Hours



You cannot post new topics in this forum
You cannot reply to topics in this forum
You cannot edit your posts in this forum
You cannot delete your posts in this forum
You cannot vote in polls in this forum
You cannot attach files in this forum
You cannot download files in this forum