Today is a free download without charge Download

Аванпост (Егор Баранов) [2019 г., Триллер, фантастика, боевик, BDRip 1080p] [HEVC] | Лицензия

Reply to topic
 
Author
Message

Theseus ®

Gender:

Longevity: 9 years 1 month

Posts: 2072

Торрент-статистика

Post 27-May-2020 15:16

[Quote]

Аванпост- Год выхода: 2019
Страна: Россия
Жанр: Триллер, фантастика, боевик
Продолжительность: 02:07:30
Перевод: Не требуется | Лицензия
Субтитры: Английские-Режиссер: Егор Баранов-В ролях: Лукерья Ильяшенко, Пётр Фёдоров, Светлана Иванова, Алексей Чадов, Ксения Кутепова, Константин Лавроненко, Филипп Авдеев, Артем Маркарьян, Сергей Годин, Артем Ткаченко-О фильме: В недалеком будущем что-то произошло. Связь с большей частью населенных пунктов Земли оборвалась. Космонавты передали с орбиты, что видят сверху небольшое пятно в Восточной Европе, по своим очертаниям напоминающее круг. То, что военные находят за границей этого круга, шокирует. В магазинах, в автомобилях, на дорогах, в зданиях больниц и вокзалов, повсюду — следы столкновений. Кто или что уничтожает все живое? И как долго продержится последний аванпост человечества?- -Качество: BDRip 1080p
Формат: MKV
Видео кодек: H.265
Аудио кодек: AC3
Видео: HEVC, 1920x800 (2.40:1), 23.976 fps, 5 962 kb/s
Аудио 1: AC-3, 48.0 kHz, 6 ch, 640 kb/s | RUS
Аудио 2: AC-3, 48.0 kHz, 6 ch, 640 kb/s | ENG-Сэмпл-

MI

Код:
Общее
Уникальный идентификатор                 : 196236562346094181004418520310879188391 (0x93A1C9835B56971ABF7E2D018FED75A7)
Полное имя                               : The Blackout.2020.BDRip.1080p.HEVC.mkv
Формат                                   : Matroska
Версия формата                           : Version 4
Размер файла                             : 6,45 Гбайт
Продолжительность                        : 2 ч. 7 м.
Общий поток                              : 7244 Кбит/сек
Дата кодирования                         : UTC 2020-05-26 20:16:51
Программа кодирования                    : mkvmerge v8.3.0 ('Over the Horizon') 64bit
Библиотека кодирования                   : libebml v1.3.1 + libmatroska v1.4.2
Видео
Идентификатор                            : 1
Формат                                   : HEVC
Формат/Информация                        : High Efficiency Video Coding
Профиль формата                          : Main 10@L4.1@High
Идентификатор кодека                     : V_MPEGH/ISO/HEVC
Продолжительность                        : 2 ч. 7 м.
Битрейт                                  : 5962 Кбит/сек
Ширина                                   : 1920 пикселей
Высота                                   : 800 пикселей
Соотношение сторон                       : 2,40:1
Режим частоты кадров                     : Постоянный
Частота кадров                           : 23,976 (24000/1001) кадра/сек
Цветовое пространство                    : YUV
Субдискретизация насыщенности            : 4:2:0
Битовая глубина                          : 10 бит
Бит/(Пиксели*Кадры)                      : 0.162
Размер потока                            : 5,31 Гбайт (82%)
Язык                                     : English
Default                                  : Да
Forced                                   : Нет
Цветовой диапазон                        : Limited
Основные цвета                           : BT.709
Характеристики трансфера                 : BT.709
Коэффициенты матрицы                     : BT.709
Аудио #1
Идентификатор                            : 2
Формат                                   : AC-3
Формат/Информация                        : Audio Coding 3
Коммерческое название                    : Dolby Digital
Идентификатор кодека                     : A_AC3
Продолжительность                        : 2 ч. 7 м.
Вид битрейта                             : Постоянный
Битрейт                                  : 640 Кбит/сек
Каналы                                   : 6 каналов
Channel layout                           : L R C LFE Ls Rs
Частота                                  : 48,0 КГц
Частота кадров                           : 31,250 кадров/сек (1536 SPF)
Битовая глубина                          : 16 бит
Метод сжатия                             : С потерями
Размер потока                            : 584 Мбайт (9%)
Язык                                     : Russian
ServiceKind/String                       : Complete Main
Default                                  : Да
Forced                                   : Нет
Аудио #2
Идентификатор                            : 3
Формат                                   : AC-3
Формат/Информация                        : Audio Coding 3
Коммерческое название                    : Dolby Digital
Идентификатор кодека                     : A_AC3
Продолжительность                        : 2 ч. 7 м.
Вид битрейта                             : Постоянный
Битрейт                                  : 640 Кбит/сек
Каналы                                   : 6 каналов
Channel layout                           : L R C LFE Ls Rs
Частота                                  : 48,0 КГц
Частота кадров                           : 31,250 кадров/сек (1536 SPF)
Битовая глубина                          : 16 бит
Метод сжатия                             : С потерями
Размер потока                            : 584 Мбайт (9%)
Язык                                     : English
ServiceKind/String                       : Complete Main
Default                                  : Нет
Forced                                   : Нет
Текст #1
Идентификатор                            : 4
Формат                                   : UTF-8
Идентификатор кодека                     : S_TEXT/UTF8
Идентификатор кодека/Информация          : UTF-8 Plain Text
Продолжительность                        : 16 м. 50 с.
Битрейт                                  : 1 бит/сек
ElementCount                             : 5
Размер потока                            : 130 байт (0%)
Заголовок                                : Forced
Язык                                     : English
Default                                  : Нет
Forced                                   : Нет
Текст #2
Идентификатор                            : 5
Формат                                   : UTF-8
Идентификатор кодека                     : S_TEXT/UTF8
Идентификатор кодека/Информация          : UTF-8 Plain Text
Продолжительность                        : 2 ч. 1 м.
Битрейт                                  : 43 бит/сек
ElementCount                             : 1262
Размер потока                            : 38,5 Кбайт (0%)
Заголовок                                : Full
Язык                                     : English
Default                                  : Нет
Forced                                   : Нет
Меню
00:00:00.000                             : en:Chapter 01
00:09:30.278                             : en:Chapter 02
00:19:34.423                             : en:Chapter 03
00:29:52.666                             : en:Chapter 04
00:40:16.581                             : en:Chapter 05
00:50:11.342                             : en:Chapter 06
01:01:00.031                             : en:Chapter 07
01:10:54.876                             : en:Chapter 08
01:22:56.471                             : en:Chapter 09
01:34:43.511                             : en:Chapter 10
01:46:17.329                             : en:Chapter 11
02:04:02.727                             : en:Chapter 12

Трейлер

-     - - -Сборка релиза - Theseus

_________________
Other forum [Profile] [PM]
Display posts from previous:    
Reply to topic

The time now is: Today 21:31

All times are GMT + 3 Hours



You cannot post new topics in this forum
You cannot reply to topics in this forum
You cannot edit your posts in this forum
You cannot delete your posts in this forum
You cannot vote in polls in this forum
You cannot attach files in this forum
You cannot download files in this forum