Today is a free download without charge Download

(Russian Rock) Аракс - Звёздная Серия - 2002 [FLAC, image +.cue, lossless]

Reply to topic
 
Author
Message

sergej644 ®

Gender:

Longevity: 8 years 3 months

Posts: 656

Location: Klaipeda

Торрент-статистика

Post 22-May-2020 01:40

[Quote]

-Аракс - Звёздная Серия--
Год издания: 2002
Страна: USSR|Russia |
Жанр: Russian Rock
Продолжительность: 01:00:29-Лейбл издания: S.T.R. Records
Страна-выпуска диска: Russia
Номер по каталогу: ZSR CD 258-1812-02-Формат: FLAC
Битрейт аудио: Lossless
Тип рипа: image +.cue
Наличие сканов в содержимом раздачи: да
-

Трэклист


01. Чёрный кони (4:05)
02. Oдин взгляд назад (3:31)
03. Колокол тревоги (4:43)
04. Солнцем освещённая дорога (5:41)
05. Золотая лестница (2:52)
06. Сон (4:16)
07. Анастасия (3:12)
08. Дороги (3:26)
09. Фортуна (3:29)
10. Лунный день (3:49)
11. Я вспоминаю (5:42)
12. С чего бы? (4:51)
13. Синева, пустота, тишина (7:18)
14. Когда поймёшь умом (3:35)
-

Лог создания рипа

Код:
Exact Audio Copy V1.5 from 20. February 2020
Отчёт EAC об извлечении, выполненном 16. марта 2020, 15:24
Аракс / Звёздная серия
Дисковод: SlimtypeES1   Adapter: 1  ID: 1
Режим чтения                 : Достоверность
Использование точного потока : Да
Отключение кэша аудио        : Да
Использование указателей C2  : Нет
Коррекция смещения при чтении                     : 6
Способность читать области Lead-in и Lead-out     : Нет
Заполнение пропущенных сэмплов тишиной            : Да
Удаление блоков с тишиной в начале и конце        : Нет
При вычислениях CRC использовались нулевые сэмплы : Да
Интерфейс                                         : Встроенный Win32-интерфейс для Win NT/2000
Выходной формат          : Пользовательский кодировщик
Выбранный битрейт        : 896 kBit/s
Качество                 : Высокий
Добавление ID3-тега      : Нет
Утилита сжатия           : C:\Program Files (x86)\Exact Audio Copy\Flac\flac.exe
Дополнительные параметры : -V -8 -T "Date=%year%" -T "Genre=%genre%" %source%
TOC извлечённого CD
     Трек |   Старт  | Длительность | Начальный сектор | Конечный сектор
    ---------------------------------------------------------------------
       1  |  0:00.00 |    4:04.46   |           0      |      18345
       2  |  4:04.46 |    3:31.18   |       18346      |      34188
       3  |  7:35.64 |    4:43.02   |       34189      |      55415
       4  | 12:18.66 |    5:40.54   |       55416      |      80969
       5  | 17:59.45 |    2:51.55   |       80970      |      93849
       6  | 20:51.25 |    4:16.04   |       93850      |     113053
       7  | 25:07.29 |    3:12.09   |      113054      |     127462
       8  | 28:19.38 |    3:26.15   |      127463      |     142927
       9  | 31:45.53 |    3:28.47   |      142928      |     158574
      10  | 35:14.25 |    3:49.10   |      158575      |     175759
      11  | 39:03.35 |    5:41.41   |      175760      |     201375
      12  | 44:45.01 |    4:51.15   |      201376      |     223215
      13  | 49:36.16 |    7:18.01   |      223216      |     256066
      14  | 56:54.17 |    3:35.06   |      256067      |     272197
Характеристики диапазона извлечения и сообщения об ошибках
Выбранный диапазон
     Имя файла D:\_Альбомы-раздачи lossless\_подготовка\Аракс-2002-Звёздная серия\Аракс - Звёздная серия.wav
     Пиковый уровень 98.4 %
     Скорость извлечения 1.9 X
     Качество диапазона 100.0 %
     CRC теста 41486B75
     CRC копии 41486B75
     Копирование... OK
Ошибок не произошло
AccurateRip: сводка
Трек  1  : извлечено точно (достоверность 1)  [7870F3F3]  (AR v1)
Трек  2  : извлечено точно (достоверность 1)  [32C65B23]  (AR v1)
Трек  3  : извлечено точно (достоверность 1)  [6D227910]  (AR v1)
Трек  4  : извлечено точно (достоверность 2)  [2C491A18]  (AR v1)
Трек  5  : извлечено точно (достоверность 1)  [E06437C8]  (AR v1)
Трек  6  : извлечено точно (достоверность 1)  [77356DC0]  (AR v1)
Трек  7  : извлечено точно (достоверность 1)  [9DAF0C76]  (AR v1)
Трек  8  : извлечено точно (достоверность 1)  [C0ED95A1]  (AR v1)
Трек  9  : извлечено точно (достоверность 1)  [28FEFA4B]  (AR v1)
Трек 10  : извлечено точно (достоверность 2)  [2E772A98]  (AR v1)
Трек 11  : извлечено точно (достоверность 2)  [511912B2]  (AR v1)
Трек 12  : извлечено точно (достоверность 1)  [B181E555]  (AR v1)
Трек 13  : извлечено точно (достоверность 2)  [98AD634A]  (AR v1)
Трек 14  : извлечено точно (достоверность 1)  [85985242]  (AR v1)
Все треки извлечены точно
Конец отчёта

Индексная карта (non-compilant .cue)

Код:
REM GENRE Rock
REM DATE 2002
REM DISCID BE0E2D0E
REM COMMENT "ExactAudioCopy v1.5"
PERFORMER "Аракс"
TITLE "Звёздная серия"
REM COMPOSER "Аракс"
FILE "Аракс - Звёздная серия.flac" WAVE
  TRACK 01 AUDIO
    TITLE "Чёрный кони"
    PERFORMER "Аракс"
    REM COMPOSER "Аракс"
    INDEX 01 00:00:00
  TRACK 02 AUDIO
    TITLE "Один взгляд назад"
    PERFORMER "Аракс"
    REM COMPOSER "Аракс"
    INDEX 01 04:04:46
  TRACK 03 AUDIO
    TITLE "Колокол тревоги"
    PERFORMER "Аракс"
    REM COMPOSER "Аракс"
    INDEX 01 07:35:64
  TRACK 04 AUDIO
    TITLE "Солнцем освещённая дорога"
    PERFORMER "Аракс"
    REM COMPOSER "Аракс"
    INDEX 01 12:18:66
  TRACK 05 AUDIO
    TITLE "Золотая лестница"
    PERFORMER "Аракс"
    REM COMPOSER "Аракс"
    INDEX 01 17:59:45
  TRACK 06 AUDIO
    TITLE "Сон"
    PERFORMER "Аракс"
    REM COMPOSER "Аракс"
    INDEX 01 20:51:25
  TRACK 07 AUDIO
    TITLE "Анастасия"
    PERFORMER "Аракс"
    REM COMPOSER "Аракс"
    INDEX 01 25:07:29
  TRACK 08 AUDIO
    TITLE "Дороги"
    PERFORMER "Аракс"
    REM COMPOSER "Аракс"
    INDEX 01 28:19:38
  TRACK 09 AUDIO
    TITLE "Фортуна"
    PERFORMER "Аракс"
    REM COMPOSER "Аракс"
    INDEX 01 31:45:53
  TRACK 10 AUDIO
    TITLE "Лунный день"
    PERFORMER "Аракс"
    REM COMPOSER "Аракс"
    INDEX 01 35:14:25
  TRACK 11 AUDIO
    TITLE "Я вспоминаю"
    PERFORMER "Аракс"
    REM COMPOSER "Аракс"
    INDEX 01 39:03:35
  TRACK 12 AUDIO
    TITLE "С чего бы?"
    PERFORMER "Аракс"
    REM COMPOSER "Аракс"
    INDEX 01 44:45:01
  TRACK 13 AUDIO
    TITLE "Синева, пустота, тишина"
    PERFORMER "Аракс"
    REM COMPOSER "Аракс"
    INDEX 01 49:36:16
  TRACK 14 AUDIO
    TITLE "Когда поймёшь умом"
    PERFORMER "Аракс"
    REM COMPOSER "Аракс"
    INDEX 01 56:54:17
--

_________________
У нас все платно: родиться, учиться, жениться, лечиться, умереть.
Бесплатно разрешено только работать.
Other forum [Profile] [PM]
Display posts from previous:    
Reply to topic

The time now is: Today 21:26

All times are GMT + 3 Hours



You cannot post new topics in this forum
You cannot reply to topics in this forum
You cannot edit your posts in this forum
You cannot delete your posts in this forum
You cannot vote in polls in this forum
You cannot attach files in this forum
You cannot download files in this forum