Today is a free download without charge Download

Александр Рябцев - Дайте мне крылья (2008) [FLAC|Lossless|image + .cue] <Instrumental, Ambient>

Reply to topic
 
Author
Message

Soldat_5 ®

Longevity: 1 year

Posts: 151

Торрент-статистика

Post 18-Mar-2020 14:21

[Quote]

Александр Рябцев - Дайте мне крылья (2008) - Жанр: Instrumental, Ambient
Издание: Стиль Рекордс - СР-117-01
Продолжительность: 01:05:07
Кодек: FLAC
Битрейт: Lossless
Тип рипа: image + .cue
Треклист:
01. Дайте мне крылья (5:04)
02. Пробуждение (4:02)
03. В вечность (3:34)
04. Ледяной замок (4:27)
05. Под чёрным дождём (5:31)
06. Покаяние (3:31)
07. Пред богом (4:05)
08. Круговорот (5:19)
09. Обнять необъятное (5:13)
10. Безумные танцы (4:08)
11. Капель (3:43)
12. Чёрный ангел (4:01)
13. Линии судьбы (4:28)
14. Грибной дождь (3:13)
15. Перевоплощение (4:47)

Дополнительная информация&#58;

Александр Иванович Рябцев родился 12 марта 1963 году в семье военнослужащего. Окончил радиотехнический факультет Новороссийского высшего инженерного морского училища. Начинал работать на судах загранплавания Новороссийского морского пароходства начальником радиостанции. В 1998 году заочно окончил судоводительский факультет Новороссийской государственной морской академии и закончил карьеру в должности старшего помощника. В это время активно сочинял довольно серьёзные музыкальные произведения. Начиная с 2005 года благодаря таким прекрасным людям как Наталия Хомченко и Дмитрий Фомин, фирме грамзапись «Никитин» и компании «Стиль Рекордс» вышли первые 4 диска - Дайте мне крылья, Сквозь вечность, Между прошлым и будущим, Ностальгия (издан в 2007 году как Alexander Ryabtsev - Europe. Fantasy vol.13).

Отчёт EAC&#58;

Exact Audio Copy V1.0 beta 3 from 29. August 2011
Отчёт EAC об извлечении, выполненном 26. февраля 2012, 13:50
Александр Рябцев / Дайте мне крылья
Дисковод: TEAC DV-W520GM Adapter: 4 ID: 0
Режим чтения : Достоверность
Использование точного потока : Да
Отключение кэша аудио : Да
Использование указателей C2 : Нет
Коррекция смещения при чтении : 6
Способность читать области Lead-in и Lead-out : Нет
Заполнение пропущенных сэмплов тишиной : Да
Удаление блоков с тишиной в начале и конце : Нет
При вычислениях CRC использовались нулевые сэмплы : Да
Интерфейс : Встроенный Win32-интерфейс для Win NT/2000
Выходной формат : Внутренние WAV-операции
Формат сэмплов : 44.100 Гц; 16 бит; стерео
TOC извлечённого CD
Трек | Старт | Длительность | Начальный сектор | Конечный сектор
---------------------------------------------------------------------
1 | 0:00.00 | 5:03.74 | 0 | 22798
2 | 5:03.74 | 4:02.36 | 22799 | 40984
3 | 9:06.35 | 3:34.36 | 40985 | 57070
4 | 12:40.71 | 4:27.08 | 57071 | 77103
5 | 17:08.04 | 5:30.56 | 77104 | 101909
6 | 22:38.60 | 3:30.51 | 101910 | 117710
7 | 26:09.36 | 4:04.71 | 117711 | 136081
8 | 30:14.32 | 5:19.36 | 136082 | 160042
9 | 35:33.68 | 5:12.44 | 160043 | 183486
10 | 40:46.37 | 4:07.56 | 183487 | 202067
11 | 44:54.18 | 3:43.34 | 202068 | 218826
12 | 48:37.52 | 4:01.07 | 218827 | 236908
13 | 52:38.59 | 4:27.72 | 236909 | 257005
14 | 57:06.56 | 3:12.72 | 257006 | 271477
15 | 60:19.53 | 4:47.36 | 271478 | 293038
Характеристики диапазона извлечения и сообщения об ошибках
Выбранный диапазон
Имя файла D:\2008 - Дайте мне крылья\Александр Рябцев - Дайте мне крылья.wav
Пиковый уровень 100.0 %
Скорость извлечения 6.1 X
Качество диапазона 100.0 %
CRC теста 07DE31C3
CRC копии 07DE31C3
Копирование... OK
Ошибок не произошло
AccurateRip: сводка
Трек 1 отсутствует в базе данных
Трек 2 отсутствует в базе данных
Трек 3 отсутствует в базе данных
Трек 4 отсутствует в базе данных
Трек 5 отсутствует в базе данных
Трек 6 отсутствует в базе данных
Трек 7 отсутствует в базе данных
Трек 8 отсутствует в базе данных
Трек 9 отсутствует в базе данных
Трек 10 отсутствует в базе данных
Трек 11 отсутствует в базе данных
Трек 12 отсутствует в базе данных
Трек 13 отсутствует в базе данных
Трек 14 отсутствует в базе данных
Трек 15 отсутствует в базе данных
Ни одного трека нет в базе AccurateRip
Конец отчёта
==== Контрольная сумма отчёта BCBCCB3C3DB87ECC39590258C79D8195814CD86C4591739785A01A1B44F49626 ====
Other forum [Profile] [PM]
Similar theme
Forum Topic Author Torrent Replies Last Post
./templates/default/images/folder_dl.gif Мультимедийные приложения Алексей Жуматаев | Бухгалтерия для не бухгалтера (2014) [unpacked] Omen
1 | 0

0 | 31

5

2014-11-24 18:48
Omen Latest
./templates/default/images/folder_dl.gif Медицина и Здоровье Александр Шишкин | Массаж за 20 минут. Экспресс-курс для начинающих (2015) [FB2] Omen
1 | 0

0 | 1349

13

2015-09-01 18:52
Omen Latest
./templates/default/images/folder_dl.gif Компьютерная литература Алексей Гладкий | Компьютер для бухгалтера (2015) [FB2] Anonymous
1 | 0

0 | 707

6

2016-07-14 09:34
Anonymous Latest
./templates/default/images/folder_dl.gif Медицина и Здоровье Антон Алексеев | Благодарный позвоночник. Как навсегда избавить его от боли (2017) [PDF, EPUB] }{@R0N
1 | 0

0 | 5547

3

2017-10-22 20:39
}{@R0N Latest
./templates/default/images/folder_dl.gif Медицина и Здоровье Александр Мясников и др. | Пора лечиться правильно. Медицинская энциклопедия (2018) [PDF] }{@R0N
1 | 0

0 | 1452

12

2018-04-20 10:40
}{@R0N Latest
./templates/default/images/folder_dl.gif ЖЗЛ. Биографии. Мемуары. Историография. Александр Коржаков | Бесы 2.0. А цари-то ненастоящие! (2018) [FB2] }{@R0N
1 | 0

0 | 1074

3

2018-07-31 21:29
}{@R0N Latest
./templates/default/images/folder_dl.gif Разное Александр Матанцев | Поздравления от души (2018) [PDF] }{@R0N
1 | 0

0 | 1422

7

2018-10-21 17:47
}{@R0N Latest
./templates/default/images/folder_dl.gif Психология, Тренинг, Саморазвитие Александр Свияш | Как разумные люди создают безумный мир. Негативные эмоции. Поймать и обезвредить (2018) [PDF] }{@R0N
1 | 0

0 | 1946

2

2019-03-17 22:54
}{@R0N Latest
./templates/default/images/folder_dl.gif Отечественные cериалы Ментовские войны (Егор Абросимов, Алексей Богданов, Алан Дзоциев, Сергей Раевский) (Сезон 01–11 + 2 Эпилога + 4 фильма) [2004–2018, криминал, боевик, детектив, SATRip] DED
1 | 0

0 | 770

0

2020-03-02 16:37
DED Latest
Display posts from previous:    
Reply to topic

The time now is: Today 04:42

All times are GMT + 3 Hours



You cannot post new topics in this forum
You cannot reply to topics in this forum
You cannot edit your posts in this forum
You cannot delete your posts in this forum
You cannot vote in polls in this forum
You cannot attach files in this forum
You cannot download files in this forum