Today is a free download without charge Download

Catharsis - Зеркало Судьбы (2019) [FLAC|Lossless|image + .cue] <Power Metal, Sympho Power Metal>

Reply to topic
 
Author
Message

Soldat_5 ®

Longevity: 4 months 27 days

Posts: 118

Торрент-статистика

Post 04-Mar-2020 09:20

[Quote]

Catharsis - Зеркало Судьбы (2019) - Жанр: Power Metal, Sympho Power Metal
Издание: Irond - IROND CD 19-1977
Источник: (релизёр:) zhenya1234
Продолжительность: 00:45:25
Кодек: FLAC
Битрейт: Lossless
Тип рипа: image + .cue
Треклист:
01 - Я вернусь
02 - Время потерь
03 - Лечу за тобой
04 - Зеркало Судьбы
05 - Сталкер
06 - Невесомость
07 - Муза морей
08 - Чёрные сфинксы
09 - Даль

Дополнительная информация&#58;

Состав:
Олег Жиляков - вокал
Игорь "Jeff" Поляков - гитара
Олег Мишин - гитара, флейта
Julia Red - клавишные
Александр Тимонин - бас-гитара
Анатолий Левитин - барабаны
Ольга Петрова - скрипка
В записи принимали участие:
Пётр Елфимов - вокал
Александр Дронов - клавишные

Отчёт EAC&#58;

Exact Audio Copy V1.3 from 2. September 2016
Отчёт EAC об извлечении, выполненном 2. марта 2020, 16:28
Catharsis / Зеркало Судьбы
Дисковод: SlimtypeES1 Adapter: 1 ID: 1
Режим чтения : Достоверность
Использование точного потока : Да
Отключение кэша аудио : Да
Использование указателей C2 : Нет
Коррекция смещения при чтении : 6
Способность читать области Lead-in и Lead-out : Нет
Заполнение пропущенных сэмплов тишиной : Да
Удаление блоков с тишиной в начале и конце : Нет
При вычислениях CRC использовались нулевые сэмплы : Да
Интерфейс : Встроенный Win32-интерфейс для Win NT/2000
Выходной формат : Пользовательский кодировщик
Выбранный битрейт : 896 kBit/s
Качество : Высокий
Добавление ID3-тега : Нет
Утилита сжатия : C:\Program Files (x86)\Exact Audio Copy\Flac\flac.exe
Дополнительные параметры : -V -8 -T "Date=%year%" -T "Genre=%genre%" %source%
TOC извлечённого CD
Трек | Старт | Длительность | Начальный сектор | Конечный сектор
---------------------------------------------------------------------
1 | 0:00.00 | 4:44.15 | 0 | 21314
2 | 4:44.15 | 5:33.73 | 21315 | 46362
3 | 10:18.13 | 4:34.45 | 46363 | 66957
4 | 14:52.58 | 3:47.65 | 66958 | 84047
5 | 18:40.48 | 4:26.73 | 84048 | 104070
6 | 23:07.46 | 5:29.45 | 104071 | 128790
7 | 28:37.16 | 3:53.02 | 128791 | 146267
8 | 32:30.18 | 7:52.66 | 146268 | 181733
9 | 40:23.09 | 5:01.71 | 181734 | 204379
Характеристики диапазона извлечения и сообщения об ошибках
Выбранный диапазон
Имя файла D:\_Альбомы-раздачи lossless\_подготовка\Catharsis-2019-Зеркало Судьбы\Catharsis - Зеркало Судьбы.wav
Пиковый уровень 98.8 %
Скорость извлечения 1.8 X
Качество диапазона 99.9 %
CRC теста A2A14DB9
CRC копии A2A14DB9
Копирование... OK
Ошибок не произошло
AccurateRip: сводка
Трек 1 отсутствует в базе данных
Трек 2 отсутствует в базе данных
Трек 3 отсутствует в базе данных
Трек 4 отсутствует в базе данных
Трек 5 отсутствует в базе данных
Трек 6 отсутствует в базе данных
Трек 7 отсутствует в базе данных
Трек 8 отсутствует в базе данных
Трек 9 отсутствует в базе данных
Ни одного трека нет в базе AccurateRip
Конец отчёта
==== Контрольная сумма отчёта 44C2175E350FA80610AB28C029F46F8A296243AF3F1DFBA469280B3FAA3D6764 ====
Other forum [Profile] [PM]
Display posts from previous:    
Reply to topic

The time now is: Today 04:12

All times are GMT + 3 Hours



You cannot post new topics in this forum
You cannot reply to topics in this forum
You cannot edit your posts in this forum
You cannot delete your posts in this forum
You cannot vote in polls in this forum
You cannot attach files in this forum
You cannot download files in this forum