Today is a free download without charge Download

Rupesh Cartel - Mainland (2CD, Limited Edition), 2СD (2005) [FLAC|Lossless|image + .cue] <Synth-pop>

Reply to topic
 
Author
Message

Soldat_5 ®

Longevity: 10 months 12 days

Posts: 135

Торрент-статистика

Post 09-Feb-2020 18:50

[Quote]

Rupesh Cartel - Mainland (2CD, Limited Edition), 2CD (2005) - Жанр: Synth-pop
Издание: A Different Drum - ADDCD1225 / ADDCD1225B
Источник: (релизёр:) s-p-m2009
Продолжительность: 01:31:48
Кодек: FLAC
Битрейт: Lossless
Тип рипа: image + .cue
Треклист:

CD1&#58;

1.01 Contract 3:22
1.02 Death With Soft Names 3:57
1.03 Any Kind Of Love 4:58
1.04 Retainer 4:13
1.05 Devastation 3:28
1.06 If I Ever Grow 4:39
1.07 Me Out Of Myself 3:38
1.08 For Ill And Not For Good 3:08
1.09 To Climb 4:40
1.10 Yours To Command 3:27
1.11 Pleased So Easily 3:43
1.12 On From Here To Hell 4:07
1.13 A Switch 13:01
Продолжительность: 01:00:19

Отчёт EAC&#58;

Exact Audio Copy V1.0 beta 3 from 29. August 2011
Отчёт EAC об извлечении, выполненном 6. февраля 2020, 11:41
Rupesh Cartel / Mainland - CD1
Дисковод: TSSTcorpCDDVDW SH-224DB Adapter: 1 ID: 0
Режим чтения : Достоверность
Использование точного потока : Да
Отключение кэша аудио : Да
Использование указателей C2 : Нет
Коррекция смещения при чтении : 6
Способность читать области Lead-in и Lead-out : Нет
Заполнение пропущенных сэмплов тишиной : Да
Удаление блоков с тишиной в начале и конце : Нет
При вычислениях CRC использовались нулевые сэмплы : Да
Интерфейс : Встроенный Win32-интерфейс для Win NT/2000
Выходной формат : Пользовательский кодировщик
Выбранный битрейт : 128 kBit/s
Качество : Высокий
Добавление ID3-тега : Нет
Утилита сжатия : C:\Program Files (x86)\FLAC\flac.exe
Дополнительные параметры : -V -8 -T "Date=%year%" -T "Genre=%genre%" %source%
TOC извлечённого CD
Трек | Старт | Длительность | Начальный сектор | Конечный сектор
---------------------------------------------------------------------
1 | 0:00.00 | 3:21.66 | 0 | 15140
2 | 3:21.66 | 3:56.15 | 15141 | 32855
3 | 7:18.06 | 4:58.39 | 32856 | 55244
4 | 12:16.45 | 4:12.70 | 55245 | 74214
5 | 16:29.40 | 3:28.20 | 74215 | 89834
6 | 19:57.60 | 4:39.13 | 89835 | 110772
7 | 24:36.73 | 3:37.58 | 110773 | 127105
8 | 28:14.56 | 3:07.65 | 127106 | 141195
9 | 31:22.46 | 4:40.07 | 141196 | 162202
10 | 36:02.53 | 3:26.28 | 162203 | 177680
11 | 39:29.06 | 3:42.33 | 177681 | 194363
12 | 43:11.39 | 4:06.50 | 194364 | 212863
13 | 47:18.14 | 13:00.66 | 212864 | 271429
Характеристики диапазона извлечения и сообщения об ошибках
Выбранный диапазон
Имя файла C:\EAC\Rupesh Cartel - Mainland - 2005 (2CD, Limited Edition)\CD1\Rupesh Cartel - Mainland - CD1.wav
Пиковый уровень 97.7 %
Скорость извлечения 7.4 X
Качество диапазона 100.0 %
CRC теста 0E9963C5
CRC копии 0E9963C5
Копирование... OK
Ошибок не произошло
AccurateRip: сводка
Трек 1 : извлечено точно (доверие 3) [3C299441] (AR v2)
Трек 2 : извлечено точно (доверие 3) [535552E2] (AR v2)
Трек 3 : извлечено точно (доверие 3) [C1C1B93C] (AR v2)
Трек 4 : извлечено точно (доверие 3) [F1B11EFE] (AR v2)
Трек 5 : извлечено точно (доверие 3) [2E3133DA] (AR v2)
Трек 6 : извлечено точно (доверие 3) [296EC6C2] (AR v2)
Трек 7 : извлечено точно (доверие 3) [DA4846B0] (AR v2)
Трек 8 : извлечено точно (доверие 3) [1EAC3268] (AR v2)
Трек 9 : извлечено точно (доверие 3) [29F9AD66] (AR v2)
Трек 10 : извлечено точно (доверие 3) [D7A1A83B] (AR v2)
Трек 11 : извлечено точно (доверие 3) [213D8819] (AR v2)
Трек 12 : извлечено точно (доверие 3) [E312C55A] (AR v2)
Трек 13 : извлечено точно (доверие 3) [120ACB75] (AR v2)
Все треки извлечены точно
Конец отчёта
==== Контрольная сумма отчёта ECE844F46E2AB2F96D94911B099E157FCB6CDBC1B1F324C6CBFE49373D32F2C5 ====

CD2&#58;

Треклист:
2.01 Days Like This 3:45
2.02 If I Ever Grow (Shattuck Plaza) 5:14
2.03 Nowhere Fast 4:27
2.04 Retainer (Quarks) 7:17
2.05 Your New World 3:57
2.06 To Climb (Porta Negra) 6:49
Продолжительность:00:31:29

Отчёт EAC&#58;

Exact Audio Copy V1.0 beta 3 from 29. August 2011
Отчёт EAC об извлечении, выполненном 6. февраля 2020, 12:09
Rupesh Cartel / Mainland - CD2
Дисковод: TSSTcorpCDDVDW SH-224DB Adapter: 1 ID: 0
Режим чтения : Достоверность
Использование точного потока : Да
Отключение кэша аудио : Да
Использование указателей C2 : Нет
Коррекция смещения при чтении : 6
Способность читать области Lead-in и Lead-out : Нет
Заполнение пропущенных сэмплов тишиной : Да
Удаление блоков с тишиной в начале и конце : Нет
При вычислениях CRC использовались нулевые сэмплы : Да
Интерфейс : Встроенный Win32-интерфейс для Win NT/2000
Выходной формат : Пользовательский кодировщик
Выбранный битрейт : 128 kBit/s
Качество : Высокий
Добавление ID3-тега : Нет
Утилита сжатия : C:\Program Files (x86)\FLAC\flac.exe
Дополнительные параметры : -V -8 -T "Date=%year%" -T "Genre=%genre%" %source%
TOC извлечённого CD
Трек | Старт | Длительность | Начальный сектор | Конечный сектор
---------------------------------------------------------------------
1 | 0:00.00 | 3:44.50 | 0 | 16849
2 | 3:44.50 | 5:14.18 | 16850 | 40417
3 | 8:58.68 | 4:26.33 | 40418 | 60400
4 | 13:25.26 | 7:17.03 | 60401 | 93178
5 | 20:42.29 | 3:57.26 | 93179 | 110979
6 | 24:39.55 | 6:48.63 | 110980 | 141642
Характеристики диапазона извлечения и сообщения об ошибках
Выбранный диапазон
Имя файла C:\EAC\Rupesh Cartel - Mainland - 2005 (2CD, Limited Edition)\CD2\Rupesh Cartel - Mainland - CD2.wav
Пиковый уровень 97.7 %
Скорость извлечения 2.5 X
Качество диапазона 100.0 %
CRC теста 89D056F5
CRC копии 89D056F5
Копирование... OK
Ошибок не произошло
AccurateRip: сводка
Трек 1 : извлечено точно (доверие 2) [9607673B] (AR v2)
Трек 2 : извлечено точно (доверие 2) [E2C230C8] (AR v2)
Трек 3 : извлечено точно (доверие 2) [44F68E5C] (AR v2)
Трек 4 : извлечено точно (доверие 2) [B66D55B6] (AR v2)
Трек 5 : извлечено точно (доверие 2) [79BDA4AB] (AR v2)
Трек 6 : извлечено точно (доверие 2) [6F943EF8] (AR v2)
Все треки извлечены точно
Конец отчёта
==== Контрольная сумма отчёта B5E04B278F46F76F71287C1CADDF848CA156B3750E302385DA50699FDBBE43F2 ====
Other forum [Profile] [PM]
Display posts from previous:    
Reply to topic

The time now is: Today 23:11

All times are GMT + 3 Hours



You cannot post new topics in this forum
You cannot reply to topics in this forum
You cannot edit your posts in this forum
You cannot delete your posts in this forum
You cannot vote in polls in this forum
You cannot attach files in this forum
You cannot download files in this forum