Today is a free download without charge Download

Stockholm Underground - Gimme Gimme Gimme & Summer Night City (1992) [FLAC|Lossless|image + .cue] <Euro House>

Reply to topic
 
Author
Message

Soldat_5 ®

Longevity: 10 months 12 days

Posts: 135

Торрент-статистика

Post 25-Jan-2020 17:47

[Quote]

Stockholm Underground - Gimme Gimme Gimme & Summer Night City (1992) - Жанр: Euro House
Издание: Control - CON 4037-5
Источник: (релизёр:) s-p-m2009
Продолжительность: 00:22:56
Кодек: FLAC
Битрейт: Lossless
Тип рипа: image + .cue
Треклист:
1 Gimme Gimme Gimme (Radio Edit) 3:25
2 Gimme Gimme Gimme (Extended Club 33 Mix) 4:45
3 Gimme Gimme Gimme (Extended Subtle Remix) 6:30
4 Summer Night City (Extended Version) 4:47
5 Summer Night City (Radio Edit) 3:17

Отчёт EAC&#58;

Exact Audio Copy V1.0 beta 3 from 29. August 2011
Отчёт EAC об извлечении, выполненном 23. января 2020, 0:36
Stockholm Undergroundy / Gimme Gimme Gimme & Summer Night City
Дисковод: TSSTcorpCDDVDW SH-224DB Adapter: 1 ID: 0
Режим чтения : Достоверность
Использование точного потока : Да
Отключение кэша аудио : Да
Использование указателей C2 : Нет
Коррекция смещения при чтении : 6
Способность читать области Lead-in и Lead-out : Нет
Заполнение пропущенных сэмплов тишиной : Да
Удаление блоков с тишиной в начале и конце : Нет
При вычислениях CRC использовались нулевые сэмплы : Да
Интерфейс : Встроенный Win32-интерфейс для Win NT/2000
Выходной формат : Пользовательский кодировщик
Выбранный битрейт : 128 kBit/s
Качество : Высокий
Добавление ID3-тега : Нет
Утилита сжатия : C:\Program Files (x86)\FLAC\flac.exe
Дополнительные параметры : -V -8 -T "Date=%year%" -T "Genre=%genre%" %source%
TOC извлечённого CD
Трек | Старт | Длительность | Начальный сектор | Конечный сектор
---------------------------------------------------------------------
1 | 0:00.33 | 3:26.30 | 33 | 15512
2 | 3:26.63 | 4:48.07 | 15513 | 37119
3 | 8:14.70 | 6:32.43 | 37120 | 66562
4 | 14:47.38 | 4:50.55 | 66563 | 88367
5 | 19:38.18 | 3:18.15 | 88368 | 103232
Характеристики диапазона извлечения и сообщения об ошибках
Выбранный диапазон
Имя файла C:\EAC\Stockholm Underground - Gimme Gimme Gimme & Summer Night City - 1992 CDM\Stockholm Undergroundy - Gimme Gimme Gimme & Summer Night City.wav
Пиковый уровень 100.0 %
Скорость извлечения 2.3 X
Качество диапазона 99.9 %
CRC теста 6847EB94
CRC копии 6847EB94
Копирование... OK
Ошибок не произошло
AccurateRip: сводка
Трек 1 : извлечено точно (доверие 4) [8CF797AD] (AR v1)
Трек 2 : извлечено точно (доверие 4) [B13E56BB] (AR v1)
Трек 3 : извлечено точно (доверие 4) [DC89AC40] (AR v1)
Трек 4 : извлечено точно (доверие 4) [FA0B52A9] (AR v1)
Трек 5 : извлечено точно (доверие 5) [A73393C9] (AR v1)
Все треки извлечены точно
Конец отчёта
==== Контрольная сумма отчёта 663A6C1358C93699CD5DF3A16C6A8735AB8F54A301031E5F524BE73CB7D1ECC1 ====
Other forum [Profile] [PM]

Dracula

Longevity: 6 years 11 months

Posts: 11356

Торрент-статистика

Post 25-Jan-2020 17:48 (after 1 minute)

Топик был перенесен из форума Pop в форум World Pop


Soldat_5
 
Display posts from previous:    
Reply to topic

The time now is: Today 22:58

All times are GMT + 3 Hours



You cannot post new topics in this forum
You cannot reply to topics in this forum
You cannot edit your posts in this forum
You cannot delete your posts in this forum
You cannot vote in polls in this forum
You cannot attach files in this forum
You cannot download files in this forum