Today is a free download without charge Download

Новогодний ремонт (Артур Пинхасов) [2019, Комедия, мелодрама, WEB-DLRip]

Reply to topic
 
Author
Message

mayor ®

Gender:

Longevity: 8 months 13 days

Posts: 206

Location: РФ

Торрент-статистика

Post 13-Jan-2020 18:41

[Quote]

- Новогодний ремонт - Производство: Россия / ВитЭл
Жанр: Комедия, мелодрама
Режиссер: Артур Пинхасов
Актеры: Зоя Бербер, Сергей Комаров, Артём Осипов, Эрик Бигуля, Вадим Галыгин, Ирина Розанова, Виталия Корниенко, Данил Стеклов, Макар Запорожский, Исмаил Коне
Описание:
У Марго есть 24 часа, чтобы сделать ремонт в квартире к приезду дочери и мамы. В попытке найти решение, она случайно отправляет сообщение с просьбой о помощи всем контактам в телефоне. С этого момента дверной звонок звучит непрерывно, а в квартире Риты один за другим появляются старые и новые друзья — русский депутат, учитель-еврей, армянин — владелец ресторана. Последним как снег на голову падает американец с предложением жениться. Все вместе решают: Маргариту в США отпускать нельзя! Пусть это будет непросто, но русские ведь просто так не сдаются…

Возраст: 12+ (зрителям, достигшим 12 лет)
Дата российской премьеры: 7 ноября 2019
Продолжительность: 01:22:44
Качество видео: WEB-DLRip [http://sendfile.su/1540641]
Перевод: Не требуется (русский)
Субтитры: Отсутствуют
Видео: Xvid, 688x288, ~1114 kbps
Аудио: MP3, 2 ch, 128 kbps

Доп.Информация:

Общее
Полное имя : E:\Novogodniy.remont.2019.WEB-DLRip.740 mb.avi
Формат : AVI
Формат/Информация : Audio Video Interleave
Размер файла : 742 Мбайт
Продолжительность : 1 ч. 22 м.
Общий поток : 1252 Кбит/сек
Программа кодирования : VirtualDubMod 1.5.10.3 | www.virtualdub-fr.org || (build 2550/release)
Библиотека кодирования : VirtualDubMod build 2550/release
Видео
Идентификатор : 0
Формат : MPEG-4 Visual
Профиль формата : Advanced Simple@L5
Параметр BVOP формата : 1
Параметр QPel формата : Нет
Параметр GMC формата : Без точки перехода
Параметр матрицы формата : Выборочная
Идентификатор кодека : XVID
Идентификатор кодека/Подсказка : XviD
Продолжительность : 1 ч. 22 м.
Битрейт : 1114 Кбит/сек
Ширина : 688 пикселей
Высота : 288 пикселей
Соотношение сторон : 2,40:1
Частота кадров : 25,000 кадров/сек
Цветовое пространство : YUV
Субдискретизация насыщенности : 4:2:0
Битовая глубина : 8 бит
Тип развёртки : Прогрессивная
Метод сжатия : С потерями
Бит/(Пиксели*Кадры) : 0.225
Размер потока : 661 Мбайт (89%)
Библиотека кодирования : XviD 73
Аудио
Идентификатор : 1
Формат : MPEG Audio
Версия формата : Version 1
Профиль формата : Layer 3
Идентификатор кодека : 55
Идентификатор кодека/Подсказка : MP3
Продолжительность : 1 ч. 22 м.
Вид битрейта : Постоянный
Битрейт : 128 Кбит/сек
Каналы : 2 канала
Частота : 48,0 КГц
Метод сжатия : С потерями
Размер потока : 75,9 Мбайт (10%)
Выравнивание : Соединение по промежуткам
Продолжительность промежутка : 40 мс. (1,00 видеокадр)
Время предзагрузки промежутка : 504 мс.
Библиотека кодирования : LAME3.99r
Настройки программы : -m s -V 4 -q 2 -lowpass 17 -b 128
Скриншоты:
       

Скриншоты:

       

_________________
Other forum [Profile] [PM]
Display posts from previous:    
Reply to topic

The time now is: Today 05:54

All times are GMT + 3 Hours



You cannot post new topics in this forum
You cannot reply to topics in this forum
You cannot edit your posts in this forum
You cannot delete your posts in this forum
You cannot vote in polls in this forum
You cannot attach files in this forum
You cannot download files in this forum