Today is a free download without charge Download

Lindemann Видеоклипы (8X Music Videos) [2015-2019, Industrial Ural Metal, WEB-DL, 1080p]

Reply to topic
 
Author
Message

mayor ®

Gender:

Longevity: 4 months

Posts: 206

Location: РФ

Торрент-статистика

Post 13-Jan-2020 18:28

[Quote]

- Lindemann Видеоклипы (8X Music Videos) - Жанр: Industrial Ural Metal
Описание:
Lindemann Видеоклипы (8X Music Videos) (2015-2019) WEB-DL [H.264, 1080p]
2015 - Lindemann - Fish On (00:05:17)
2015 - Lindemann - Praise Abort (00:05:13)
2018 - Lindemann - Mathematik ft. Haftbefehl (00:04:06)
2019 - Lindemann - Ach so gern (00:04:21)
2019 - Lindemann - Frau & Mann (00:07:25)
2019 - Lindemann - Ich weiß es nicht (00:04:55)
2019 - Lindemann – Knebel (00:03:52)
2019 - Lindemann - Steh auf (00:04:02)
Продолжительность: 00:39:01
Качество видео: WEB-DL
Видео: AVC/H.264, 1920x1080 (1.778), ~3710 kbps
Аудио: AAC, 2 ch, ~128 kb/s

Доп.Информация:

2019 Lindemann - Ich weiß es nicht (Official AI-Video) [1080].mp4
Format : MPEG-4
Format profile : Base Media
Codec ID : isom (isom/iso2/avc1/mp41)
File size : 131 MiB
Duration : 4 min 55 s
Overall bit rate : 3 710 kb/s
Writing application : Lavf58.29.100
Video
ID : 1
Format : AVC
Format/Info : Advanced Video Codec
Format profile : High@L4
Format settings : CABAC / 3 Ref Frames
Format settings, CABAC : Yes
Format settings, Reference frames : 3 frames
Codec ID : avc1
Codec ID/Info : Advanced Video Coding
Duration : 4 min 55 s
Bit rate : 3 577 kb/s
Width : 1 440 pixels
Height : 1 080 pixels
Display aspect ratio : 4:3
Frame rate mode : Constant
Frame rate : 24.000 FPS
Color space : YUV
Chroma subsampling : 4:2:0
Bit depth : 8 bits
Scan type : Progressive
Bits/(Pixel*Frame) : 0.096
Stream size : 126 MiB (96%)
Title : ISO Media file produced by Google Inc.
Writing library : x264 core 155 r2901 7d0ff22
Color range : Limited
Color primaries : BT.709
Transfer characteristics : BT.709
Matrix coefficients : BT.709
Codec configuration box : avcC
Audio
ID : 2
Format : AAC LC
Format/Info : Advanced Audio Codec Low Complexity
Codec ID : mp4a-40-2
Duration : 4 min 55 s
Bit rate mode : Constant
Bit rate : 128 kb/s
Channel(s) : 2 channels
Channel layout : L R
Sampling rate : 44.1 kHz
Frame rate : 43.066 FPS (1024 SPF)
Compression mode : Lossy
Stream size : 4.51 MiB (3%)
Title : ISO Media file produced by Google Inc.
Language : English
Default : Yes
Alternate group : 1 2019 Lindemann - Frau & Mann (Official Video) [1080].mp4
Format : MPEG-4
Format profile : Base Media
Codec ID : isom (isom/iso2/avc1/mp41)
File size : 84.9 MiB
Duration : 7 min 25 s
Overall bit rate : 1 597 kb/s
Writing application : Lavf58.29.100
Video
ID : 1
Format : AVC
Format/Info : Advanced Video Codec
Format profile : High@L4
Format settings : CABAC / 3 Ref Frames
Format settings, CABAC : Yes
Format settings, Reference frames : 3 frames
Codec ID : avc1
Codec ID/Info : Advanced Video Coding
Duration : 7 min 25 s
Bit rate : 1 463 kb/s
Width : 1 920 pixels
Height : 1 080 pixels
Display aspect ratio : 16:9
Frame rate mode : Constant
Frame rate : 25.000 FPS
Color space : YUV
Chroma subsampling : 4:2:0
Bit depth : 8 bits
Scan type : Progressive
Bits/(Pixel*Frame) : 0.028
Stream size : 77.7 MiB (92%)
Title : ISO Media file produced by Google Inc.
Writing library : x264 core 155 r2901 7d0ff22
Color range : Limited
Color primaries : BT.709
Transfer characteristics : BT.709
Matrix coefficients : BT.709
Codec configuration box : avcC
Audio
ID : 2
Format : AAC LC
Format/Info : Advanced Audio Codec Low Complexity
Codec ID : mp4a-40-2
Duration : 7 min 25 s
Bit rate mode : Constant
Bit rate : 128 kb/s
Channel(s) : 2 channels
Channel layout : L R
Sampling rate : 44.1 kHz
Frame rate : 43.066 FPS (1024 SPF)
Compression mode : Lossy
Stream size : 6.80 MiB (8%)
Title : ISO Media file produced by Google Inc.
Default : Yes
Alternate group : 1
Скриншоты:
       

_________________
Other forum [Profile] [PM]
Display posts from previous:    
Reply to topic

The time now is: Today 20:32

All times are GMT + 3 Hours



You cannot post new topics in this forum
You cannot reply to topics in this forum
You cannot edit your posts in this forum
You cannot delete your posts in this forum
You cannot vote in polls in this forum
You cannot attach files in this forum
You cannot download files in this forum