Today is a free download without charge Download

Дискотека 80-х (1 канал) [2019, Disco, HDTV, 1080i]

Reply to topic
 
Author
Message

mayor ®

Gender:

Longevity: 10 months 28 days

Posts: 206

Location: РФ

Торрент-статистика

Post 04-Jan-2020 20:18

[Quote]

- Дискотека 80-х - Производство: Россия
Жанр: Disco
Режиссер: 1 канал
Актеры: Thomas Anders, Bad Boys Blue, C.C. Catch, Sandra и т.д.
Описание:
Главное музыкальное событие года - Дискотека 80-х от Авторадио! С каждым годом фестиваль Авторадио становится все более масштабным. Сегодня Дискотека 80-х - не просто праздник поколения, возвращающий зрителей во времена их юности, а современное, неординарное и динамичное супершоу, привлекающее зрителей самых разных возрастов. Мы имели возможность увидеть это фантастическое, захватывающее шоу, в котором гармонично сочетаются великолепные мелодии 80-х, красочные костюмы участников, ультрасовременная сценография, эффектные постановки и оригинальные творческие идеи.
Релиз от: Romanok68
Продолжительность: 01:58:36
Качество видео: HDTV
Видео: AVC/H.264, 1920х1080, ~11.5 Mbps
Аудио: MP2, 2 ch, 192 Kbps

Треклист:

01. Thomas Anders - «You`re My Heart You`re My Soul»
02. Thomas Anders - «Brother Louie»
03. Thomas Anders - «Cheri Cheri Lady»
04. Руки Вверх - «Он тебя целует»
05. Руки Вверх - «18 мне уже»
06. Bad Boys Blue - «Pretty Young Girl»
07. Bad Boys Blue - «You’re a Woman»
08. Владимир Маркин - «Я готов целовать песок»
09. Pupo - «Gelato Al Cioccolato»
10. Pupo - «Un Amore Grande»
11. «Здравствуй, песня» - «Синий иней»
12. Вячеслав Добрынин - «Попурри» («Всё, что в жизни есть у меня», «Кто тебе сказал?», «Синий туман», «Не сыпь мне соль на рану», «Колдовское озеро», «Льется музыка»)
13. «Londonbeat» - «You Bring On The Sun»
14. «Londonbeat» - «I’ve Been Thinking About You»
15. Евгений Маргулис - «Старые песни»
16. Евгений Маргулис - «Мой друг лучше всех играет блюз»
17. Андрей Державин / «Сталкер» - «Песня про брата»
18. Андрей Державин / «Сталкер» - «Не плачь, Алиса»
19. Sandra - «Maria Magdalena»
20. Sandra - «In The Heat Of The Night»
21. Дюна - «Привет с большого бодуна»
22. Дюна - «Страна лимония»
23. «Альянс» - «На заре»
24. «Alphaville» - «Forever Young»
25. «Alphaville» - «Big in Japan»
26. Сергей Минаев - «Карнавал»
27. Олег Газманов / «Эскадрон» - «Есаул»
28. Олег Газманов / «Эскадрон» - «Путана»
29. C.C. Catch - «I Can Lose My Heart Tonight»
30. C.C. Catch - «Heaven and Hell»
31. Лев Лещенко - «Прощай»

Доп.Информация:

Общее
Идентификатор : 1 (0x1)
Полное имя : D:\Дискотека 80-х 2019 год (HDTV1080i).ts
Формат : MPEG-TS
Размер файла : 10,2 Гбайт
Продолжительность : 1 ч. 58 м.
Режим общего битрейта : Переменный
Общий поток : 12,3 Мбит/сек
Видео
Идентификатор : 2141 (0x85D)
Идентификатор меню : 21004 (0x520C)
Формат : AVC
Формат/Информация : Advanced Video Codec
Профиль формата : Main@L4
Настройки формата : CABAC / 3 Ref Frames
Параметр CABAC формата : Да
Параметр RefFrames формата : 3 кадра
Идентификатор кодека : 27
Продолжительность : 1 ч. 58 м.
Битрейт : 11,5 Мбит/сек
Ширина : 1920 пикселей
Высота : 1080 пикселей
Соотношение сторон : 16:9
Частота кадров : 25,000 кадров/сек
Цветовое пространство : YUV
Субдискретизация насыщенности : 4:2:0
Битовая глубина : 8 бит
Тип развёртки : Чересстрочная
Метод сохранения типа развёртки : Раздельные поля
Порядок развёртки : Верхнее поле первое
Бит/(Пиксели*Кадры) : 0.221
Размер потока : 9,50 Гбайт (93%)
Цветовой диапазон : Limited
Основные цвета : BT.709
Характеристики трансфера : BT.709
Коэффициенты матрицы : BT.709
Аудио
Идентификатор : 2142 (0x85E)
Идентификатор меню : 21004 (0x520C)
Формат : MPEG Audio
Версия формата : Version 1
Профиль формата : Layer 2
Идентификатор кодека : 3
Продолжительность : 1 ч. 58 м.
Вид битрейта : Постоянный
Битрейт : 192 Кбит/сек
Каналы : 2 канала
Частота : 48,0 КГц
Частота кадров : 41,667 кадра/сек (1152 SPF)
Метод сжатия : С потерями
Задержка видео : -120 мс.
Размер потока : 163 Мбайт (2%)
Язык : Russian

Дополнительная информация:

Телеверсия 1 канала
Запись со спутника Eutelsat 36B/36C (Триколор ТВ)
Скриншоты:
       

_________________
Other forum [Profile] [PM]
Similar theme
Forum Topic Author Torrent Replies Last Post
./templates/default/images/folder_dl.gif Metal (Thrash / Power Metal) Demons & Wizards - Дискография (2000-2005) [MP3, tracks, 320 kbps] Anonymous
0 | 1

2 | 2631

0

2011-10-26 21:40
Dracula Latest
./templates/default/images/folder_dl.gif Metal (Heavy / Power Metal) Masterplan - Дискография (2002 - 2010) [MP3, tracks, 256 - 320 kbps] Anonymous
0 | 1

6 | 4055

4

2011-10-26 21:40
Dracula Latest
./templates/default/images/folder_dl.gif Metal (Heavy / Power Metal) StormHammer - Дискография (2000 - 2009), MP3, 320 kbps Anonymous
0 | 1

0 | 1745

0

2010-06-02 12:01
Anonymous Latest
./templates/default/images/folder_dl.gif Metal (Power Metal) Powerwolf - Дискография - 2005, MP3, 320 kbps Sergey Zh.
0 | 1

4 | 2926

1

2012-03-09 23:38
Sergey Zh. Latest
./templates/default/images/folder_dl.gif Metal (Stoner Metal) Orange Goblin - Дискография (1997 - 2013, 15CD), MP3, 320 kbps Omen
0 | 1

1 | 1065

0

2013-05-19 13:04
Dracula Latest
./templates/default/images/folder_dl.gif Metal (Atmospheric Pagan / NS Black Metal) Aryan Art - Дискография - 2002 - 2009, MP3, V2-320 kbps Omen
0 | 1

1 | 1562

0

2013-06-12 05:30
Dracula Latest
./templates/default/images/folder_dl.gif Metal (Melodic Heavy Metal) Pretty Maids - дискография (23 релиза), 1983-2013, MP3 (tracks), 320 kbps Omen
0 | 1

1 | 1513

1

2013-06-12 22:11
Dracula Latest
./templates/default/images/folder_dl.gif Metal (Grunge) Iron Maiden - Iron Maiden-Дискография(1980+2006)+Piano Tribute to Iron Maiden - 1980-2006, MP3, 320 kbps Omen
0 | 1

1 | 1396

0

2013-06-12 22:11
Dracula Latest
./templates/default/images/folder_dl.gif Metal (Doomdeath, Gothic Metal, Trip Rock, Progressive Metal) the Gathering - Дискография (1991-2013), 40 релизов (46 CD, 3 WEB-релиза), FLAC (image+cue, tracks/web), lossless Omen
1 | 0

0 | 723

2

2013-12-16 23:00
Omen Latest
./templates/default/images/folder_dl.gif Metal (Progressive Thrash Metal) Mekong Delta - Дискография 19 CD, (обновление 23-02-14), FLAC (image + .cue), lossless Omen
0 | 1

0 | 687

0

2014-02-23 11:00
Omen Latest
Display posts from previous:    
Reply to topic

The time now is: Today 15:51

All times are GMT + 3 Hours



You cannot post new topics in this forum
You cannot reply to topics in this forum
You cannot edit your posts in this forum
You cannot delete your posts in this forum
You cannot vote in polls in this forum
You cannot attach files in this forum
You cannot download files in this forum