Today is a free download without charge Download

Догмэн / Dogman (Маттео Гарроне) [2018, триллер, драма, криминал, BDRip 1080p] [MVO] [iTunes]

Reply to topic
DL-List and Torrent activity
Size:  6.63 GB   |    Registered:  9 months 4 days   |    Completed:  0 times
Seeders:  2  [  0 KB/s  ]   Leechers:  1  [  0 KB/s  ]   Show peers in full details
 
 
 
 
Author
Message

Орлов Владимир ®

Gender:

Longevity: 1 year

Posts: 465

Location: Россия , Долгопрудный, Моск.обл

Торрент-статистика

Post 15-Dec-2019 07:02

[Quote]

--Догмэн / Dogman-- Информация о фильме
Название: Догмэн
Оригинальное название: Dogman
Год выхода: 2018
Жанр: триллер, драма, криминал
Режиссер: Маттео Гарроне--В ролях: Марчелло Фонте, Эдоардо Пеше, Нунциа Скьяно, Адамо Дионизи, Франческо Аквароли, Джанлука Гобби, Алида Бальдари Калабрия, Лаура Пиццирани, Джанкарло Поркачча, Аньелло Арена--О фильме: Марчелло - маленький человек с большим сердцем и грустными глазами. Он держит парикмахерскую для собак «Догмэн» и умеет усмирить ласковым словом и питбуля, и местного громилу Симоне, который терроризирует всю округу. Марчелло мечтает увезти любимую дочку в далекое путешествие, но по доброте душевной сопровождает Симоне в его криминальных вылазках, и однажды это приводит к катастрофе. Преданный другом, Марчелло впервые в жизни решается объявить настоящую войну.-- --Выпущено: Италия, Франция / Archimede, Canal+ [fr], Ciné, Comune di Castel Volturno, Direzione Generale Cinema, Eurimages, Film Commission Regione Campania, L'Aide aux Cinémas du Monde, Le Pacte
Продолжительность: 01:42:50
Озвучивание: Профессиональное (многоголосое) iTunes--Файл
Формат: MKV
Качество: BDRip 1080p
Видео: AVC, 8848 Kb/s, 1920x800
Аудио: Russian: AC3, 6 ch, 384 Kb/s
Субтитры: Нет
Дополнительно: Сохранены оригинальные чаптеры.--

Тех.данные видеофайла

Видео
Идентификатор : 1
Формат : AVC
Формат/Информация : Advanced Video Codec
Профиль формата : High@L4.1
Настройки формата : CABAC / 3 Ref Frames
Параметр CABAC формата : Да
Параметр RefFrames формата : 3 кадра
Параметр GOP формата : M=3, N=24
Идентификатор кодека : V_MPEG4/ISO/AVC
Продолжительность : 1 ч. 42 м.
Битрейт : 8848 Кбит/сек
Ширина : 1920 пикселей
Высота : 800 пикселей
Соотношение сторон : 2,40:1
Режим частоты кадров : Постоянный
Частота кадров : 24,000 кадра/сек
Цветовое пространство : YUV
Субдискретизация насыщенности : 4:2:0
Битовая глубина : 8 бит
Тип развёртки : Прогрессивная
Бит/(Пиксели*Кадры) : 0.240
Размер потока : 6,36 Гбайт (96%)
Заголовок : iTunes (ELEKTRI4KA.UNIONGANG)
Библиотека кодирования : x264 core 148
Настройки программы : cabac=1 / ref=3 / deblock=1:-1:-1 / analyse=0x3:0 / me=hex / subme=5 / psy=1 / psy_rd=1.00:0.00 / mixed_ref=0 / me_range=16 / chroma_me=1 / trellis=1 / 8x8dct=1 / cqm=0 / deadzone=21,11 / fast_pskip=0 / chroma_qp_offset=0 / threads=8 / lookahead_threads=2 / sliced_threads=0 / nr=0 / decimate=1 / interlaced=0 / bluray_compat=0 / constrained_intra=0 / bframes=2 / b_pyramid=0 / b_adapt=1 / b_bias=0 / direct=1 / weightb=0 / open_gop=0 / weightp=0 / keyint=24 / keyint_min=2 / scenecut=40 / intra_refresh=0 / rc=2pass / mbtree=0 / bitrate=8848 / ratetol=1.0 / qcomp=0.60 / qpmin=0 / qpmax=69 / qpstep=4 / cplxblur=20.0 / qblur=0.5 / ip_ratio=1.40 / pb_ratio=1.30 / aq=1:1.00
Default : Да
Forced : Нет
Цветовой диапазон : Limited
Основные цвета : BT.709
Характеристики трансфера : BT.709
Коэффициенты матрицы : BT.709
Аудио
Идентификатор : 2
Формат : AC-3
Формат/Информация : Audio Coding 3
Коммерческое название : Dolby Digital
Идентификатор кодека : A_AC3
Продолжительность : 1 ч. 42 м.
Вид битрейта : Постоянный
Битрейт : 384 Кбит/сек
Каналы : 6 каналов
ChannelLayout : L R C LFE Ls Rs
Частота : 48,0 КГц
Частота кадров : 31,250 кадров/сек (1536 SPF)
Метод сжатия : С потерями
Размер потока : 282 Мбайт (4%)
Заголовок : iTunes (ELEKTRI4KA.UNIONGANG)
Язык : Russian
ServiceKind/String : Complete Main
Default : Да
Forced : Нет
Меню
00:00:00.000 : en:(01)00:00:00:000
00:09:22.833 : en:(02)00:09:22:833
00:23:21.125 : en:(03)00:23:21:125
00:27:55.666 : en:(04)00:27:55:666
00:33:13.458 : en:(05)00:33:13:458
00:45:37.625 : en:(06)00:45:37:625
00:53:16.166 : en:(07)00:53:16:166
01:02:54.541 : en:(08)01:02:54:541
01:09:33.916 : en:(09)01:09:33:916
01:15:07.333 : en:(10)01:15:07:333
01:25:24.208 : en:(11)01:25:24:208
01:37:30.125 : en:(12)01:37:30:125

Скриншоты

       
[darkos.club].t338924.torrent 
Torrent: Registered   [ 2019-12-15 07:02 ]

Download

34 KB

Воспроизвести онлайн

Status: checked
Completed: 0 times
Size: 6.63 GB, InfoHash (Google it!)
Score:  5 (vote: 1)
Default: 1  Thank you   (list)
 

_________________
Other forum [Profile] [PM]
Display posts from previous:    
Reply to topic

The time now is: Today 12:09

All times are GMT + 3 Hours



You cannot post new topics in this forum
You cannot reply to topics in this forum
You cannot edit your posts in this forum
You cannot delete your posts in this forum
You cannot vote in polls in this forum
You cannot attach files in this forum
You can download files in this forum