Today is a free download without charge Download

Лига Чемпионов 2019-2020. 6-й тур. Обзор матчей (10.12.2019) HDTVRip [H.264/720p-LQ] [hand made 50fps]

Reply to topic
 
Author
Message

Soldat_5 ®

Longevity: 2 months 9 days

Posts: 92

Торрент-статистика

Post 11-Dec-2019 11:31

[Quote]

Футбол. Лига Чемпионов 2019-2020. 6-й тур. Обзор матчей (10.12.2019) - Телекомпания: Матч! Футбол 1
Жанр: Спорт, Футбол
Комментатор: Эльвин Керимов
Описание:
Футбол. Лига Чемпионов 2019-2020. 6-й тур. 1-й день. Обзор матчей (10.12.2019)
Релиз от: R.G.Football.net
Продолжительность: 00:30:57
Качество видео: HDTVRip
Язык озвучки: Русский
Субтитры: отсутствуют
Видео: AVC/H.264, 1280x720, ~3397 kbps, 50fps
Аудио: AС3, 2 ch, 128 kbps

MediaInfo:

Общее
Уникальный идентификатор : 155208759164936081757582851060730318557 (0x74C41EA40C9F2D1EB4A304FA131E4EDD)
Полное имя : D:\DRUGOE\2019.12.10_Obzor.tura.mkv
Формат : Matroska
Версия формата : Version 4
Размер файла : 796 Мбайт
Продолжительность : 30 м. 57 с.
Общий поток : 3597 Кбит/сек
Программа кодирования : VideoReDo (Lavf56.25.101)
Библиотека кодирования : VideoReDo (Lavf56.25.101)
Видео
Идентификатор : 1
Формат : AVC
Формат/Информация : Advanced Video Codec
Профиль формата : [url=mailto:High@L4.1]High@L4.1[/url]
Настройки формата : CABAC / 4 Ref Frames
Параметр CABAC формата : Да
Параметр RefFrames формата : 4 кадра
Идентификатор кодека : V_MPEG4/ISO/AVC
Продолжительность : 30 м. 57 с.
Битрейт : 3397 Кбит/сек
Ширина : 1280 пикселей
Высота : 720 пикселей
Соотношение сторон : 16:9
Режим частоты кадров : Постоянный
Частота кадров : 50,000 кадров/сек
Цветовое пространство : YUV
Субдискретизация насыщенности : 4:2:0
Битовая глубина : 8 бит
Тип развёртки : Прогрессивная
Бит/(Пиксели*Кадры) : 0.074
Размер потока : 752 Мбайт (94%)
Default : Нет
Forced : Нет
Аудио
Идентификатор : 2
Формат : AC-3
Формат/Информация : Audio Coding 3
Коммерческое название : Dolby Digital
Идентификатор кодека : A_AC3
Продолжительность : 30 м. 57 с.
Вид битрейта : Постоянный
Битрейт : 128 Кбит/сек
Каналы : 2 канала
ChannelLayout : L R
Частота : 48,0 КГц
Частота кадров : 31,250 кадров/сек (1536 SPF)
Метод сжатия : С потерями
Размер потока : 28,3 Мбайт (4%)
Язык : Russian
ServiceKind/String : Complete Main
Default : Да
Forced : Нет
Скриншоты:
       
Other forum [Profile] [PM]
Display posts from previous:    
Reply to topic

The time now is: Today 11:57

All times are GMT + 3 Hours



You cannot post new topics in this forum
You cannot reply to topics in this forum
You cannot edit your posts in this forum
You cannot delete your posts in this forum
You cannot vote in polls in this forum
You cannot attach files in this forum
You cannot download files in this forum