Today is a free download without charge Download

Culture Club - Colour By Numbers (1983) 1984, Virgin [FLAC|Lossless|tracks + .cue] <New Wave, Synth-pop>

Reply to topic
 
Author
Message

Soldat_5 ®

Longevity: 1 year 11 months

Posts: 149

Торрент-статистика

Post 10-Dec-2019 13:13

[Quote]

Culture Club - Colour By Numbers (1983) 1984, Virgin - Жанр: New Wave, Synth-pop
Издание: Virgin - CDV 2285
Источник: (релизёр:) andrew_kamsky
Продолжительность: 00:38:18
Кодек: FLAC
Битрейт: Lossless
Тип рипа: tracks + .cue
Треклист:
01. Karma Chameleon
02. It's A Miracle
03. Black Money
04. Changing Every Day
05. That's The Way (I'm Only Trying To Help You)
06. Church Of The Poison Mind
07. Miss Me Blind
08. Mister Man
09. Stormkeeper
10. Victims

Отчёт EAC&#58;

Exact Audio Copy V1.0 beta 3 from 29. August 2011
EAC extraction logfile from 19. January 2017, 17:13
Culture Club / Colour By Numbers
Used drive : ASUS DRW-20B1LT Adapter: 3 ID: 0
Read mode : Secure
Utilize accurate stream : Yes
Defeat audio cache : Yes
Make use of C2 pointers : No
Read offset correction : 6
Overread into Lead-In and Lead-Out : No
Fill up missing offset samples with silence : Yes
Delete leading and trailing silent blocks : No
Null samples used in CRC calculations : Yes
Used interface : Native Win32 interface for Win NT & 2000
Gap handling : Appended to previous track
Used output format : User Defined Encoder
Selected bitrate : 896 kBit/s
Quality : High
Add ID3 tag : No
Command line compressor : C:\Program Files\Exact Audio Copy\Flac\flac.exe
Additional command line options : -8 -V -T "ARTIST=%artist%" -T "TITLE=%title%" -T "ALBUM=%albumtitle%" -T "DATE=%year%" -T "TRACKNUMBER=%tracknr%" -T "GENRE=%genre%" -T "COMMENT=EAC FLAC -8" %source%
TOC of the extracted CD
Track | Start | Length | Start sector | End sector
---------------------------------------------------------
1 | 0:00.32 | 4:13.00 | 32 | 19006
2 | 4:13.32 | 3:25.30 | 19007 | 34411
3 | 7:38.62 | 5:19.18 | 34412 | 58354
4 | 12:58.05 | 3:17.70 | 58355 | 73199
5 | 16:16.00 | 2:46.32 | 73200 | 85681
6 | 19:02.32 | 3:30.53 | 85682 | 101484
7 | 22:33.10 | 4:29.65 | 101485 | 121724
8 | 27:03.00 | 3:36.12 | 121725 | 137936
9 | 30:39.12 | 2:49.50 | 137937 | 150661
10 | 33:28.62 | 4:54.73 | 150662 | 172784
Track 1
Filename K:\EACrips\Culture Club - Colour By Numbers\01 - Karma Chameleon.wav
Pre-gap length 0:00:02.32
Peak level 96.0 %
Extraction speed 3.4 X
Track quality 100.0 %
Test CRC 3F3957B0
Copy CRC 3F3957B0
Accurately ripped (confidence 24) [9A72A0C5] (AR v2)
Copy OK
Track 2
Filename K:\EACrips\Culture Club - Colour By Numbers\02 - It's A Miracle.wav
Peak level 94.2 %
Extraction speed 3.7 X
Track quality 100.0 %
Test CRC 136FE0D1
Copy CRC 136FE0D1
Accurately ripped (confidence 24) [0DD4D5F7] (AR v2)
Copy OK
Track 3
Filename K:\EACrips\Culture Club - Colour By Numbers\03 - Black Money.wav
Pre-gap length 0:00:00.28
Peak level 84.2 %
Extraction speed 4.2 X
Track quality 100.0 %
Test CRC 8B162084
Copy CRC 8B162084
Accurately ripped (confidence 24) [FCA9DDD4] (AR v2)
Copy OK
Track 4
Filename K:\EACrips\Culture Club - Colour By Numbers\04 - Changing Every Day.wav
Pre-gap length 0:00:00.01
Peak level 78.4 %
Extraction speed 4.3 X
Track quality 100.0 %
Test CRC E2B5EAF8
Copy CRC E2B5EAF8
Accurately ripped (confidence 23) [E8C2C4A0] (AR v2)
Copy OK
Track 5
Filename K:\EACrips\Culture Club - Colour By Numbers\05 - That's The Way (I'm Only Trying To Help You).wav
Pre-gap length 0:00:00.01
Peak level 65.8 %
Extraction speed 4.3 X
Track quality 100.0 %
Test CRC D974112C
Copy CRC D974112C
Accurately ripped (confidence 25) [7E2AAF03] (AR v2)
Copy OK
Track 6
Filename K:\EACrips\Culture Club - Colour By Numbers\06 - Church Of The Poison Mind.wav
Pre-gap length 0:00:00.38
Peak level 85.0 %
Extraction speed 4.7 X
Track quality 100.0 %
Test CRC 720B3E2C
Copy CRC 720B3E2C
Accurately ripped (confidence 24) [20083210] (AR v2)
Copy OK
Track 7
Filename K:\EACrips\Culture Club - Colour By Numbers\07 - Miss Me Blind.wav
Pre-gap length 0:00:00.01
Peak level 88.2 %
Extraction speed 5.1 X
Track quality 100.0 %
Test CRC A153D782
Copy CRC A153D782
Accurately ripped (confidence 24) [40E89544] (AR v2)
Copy OK
Track 8
Filename K:\EACrips\Culture Club - Colour By Numbers\08 - Mister Man.wav
Pre-gap length 0:00:00.01
Peak level 92.9 %
Extraction speed 5.2 X
Track quality 100.0 %
Test CRC 33944762
Copy CRC 33944762
Accurately ripped (confidence 25) [EB7A914E] (AR v2)
Copy OK
Track 9
Filename K:\EACrips\Culture Club - Colour By Numbers\09 - Stormkeeper.wav
Peak level 76.8 %
Extraction speed 4.0 X
Track quality 99.9 %
Test CRC 80D4BDED
Copy CRC 80D4BDED
Accurately ripped (confidence 24) [FEBEC534] (AR v2)
Copy OK
Track 10
Filename K:\EACrips\Culture Club - Colour By Numbers\10 - Victims.wav
Pre-gap length 0:00:02.46
Peak level 81.9 %
Extraction speed 5.9 X
Track quality 100.0 %
Test CRC 742A6C6E
Copy CRC 742A6C6E
Accurately ripped (confidence 23) [57634D74] (AR v2)
Copy OK
All tracks accurately ripped
No errors occurred
End of status report
==== Log checksum 9842B8BA944F011F02D55057306D777784C2B91EC002A4A5DC900AA8F6246C88 ====
Other forum [Profile] [PM]
Display posts from previous:    
Reply to topic

The time now is: Today 19:02

All times are GMT + 3 Hours



You cannot post new topics in this forum
You cannot reply to topics in this forum
You cannot edit your posts in this forum
You cannot delete your posts in this forum
You cannot vote in polls in this forum
You cannot attach files in this forum
You cannot download files in this forum