Today is a free download without charge Download

(Pop, reggae, disco) [CD] Supermax - Living In A World - 1996, FLAC (image+.cue), lossless

Reply to topic
 
Author
Message

Soldat_5 ®

Longevity: 4 months 22 days

Posts: 117

Торрент-статистика

Post 08-Dec-2019 12:30

[Quote]

Supermax / Living In A World
Жанр: Pop, reggae, disco
Носитель: CD
Страна-производитель диска (релиза): Germany
Год издания: 1996
Издатель (лейбл): Grand Prix
Номер по каталогу: GP102-2
Страна исполнителя (группы): Germany
Аудиокодек: FLAC (*.flac)
Тип рипа: image+.cue
Продолжительность: 44:06
Источник: собственный рип
Наличие сканов в содержимом раздачи: да
Треклист:
1 Living In A World 6:04
2 Going Back Home 4:59
3 Hara Hara 5:51
4 Scream Of A Butterfly 4:38
5 I Want You 4:32
6 Something In My Heart 4:27
7 Dreadlock Generation 4:55
8 5 Past 4 3:56
9 Salongo 4:12

Лог создания рипа

Код:
Exact Audio Copy V1.3 from 2. September 2016
Отчёт EAC об извлечении, выполненном 7. декабря 2019, 16:06
Supermax / Living In A World
Дисковод: ATAPI   iHBS112   2   Adapter: 1  ID: 1
Режим чтения                 : Достоверность
Использование точного потока : Да
Отключение кэша аудио        : Да
Использование указателей C2  : Нет
Коррекция смещения при чтении                     : 6
Способность читать области Lead-in и Lead-out     : Нет
Заполнение пропущенных сэмплов тишиной            : Да
Удаление блоков с тишиной в начале и конце        : Нет
При вычислениях CRC использовались нулевые сэмплы : Да
Интерфейс                                         : Встроенный Win32-интерфейс для Win NT/2000
Выходной формат          : Пользовательский кодировщик
Выбранный битрейт        : 128 kBit/s
Качество                 : Высокий
Добавление ID3-тега      : Нет
Утилита сжатия           : C:\Program Files (x86)\Exact Audio Copy\Flac\flac.exe
Дополнительные параметры : -V -8 -T "Date=%year%" -T "Genre=%genre%" %source%
TOC извлечённого CD
     Трек |   Старт  | Длительность | Начальный сектор | Конечный сектор
---------------------------------------------------------------------
1  |  0:00.00 |    6:07.55   |           0      |      27579
2  |  6:07.55 |    5:02.67   |       27580      |      50296
3  | 11:10.47 |    5:55.10   |       50297      |      76931
4  | 17:05.57 |    4:41.38   |       76932      |      98044
5  | 21:47.20 |    4:35.07   |       98045      |     118676
6  | 26:22.27 |    4:31.05   |      118677      |     139006
7  | 30:53.32 |    4:58.15   |      139007      |     161371
8  | 35:51.47 |    4:00.00   |      161372      |     179371
9  | 39:51.47 |    4:14.33   |      179372      |     198454
Характеристики диапазона извлечения и сообщения об ошибках
Выбранный диапазон
     Имя файла D:\EAC\Supermax - Living In A World.wav
     Пиковый уровень 94.4 %
Скорость извлечения 7.9 X
Качество диапазона 99.9 %
CRC теста 50F14EB9
CRC копии 50F14EB9
Копирование... OK
Ошибок не произошло
AccurateRip: сводка
Трек  1  : извлечено точно (доверие 1)  [0E4F568C]  (AR v2)
Трек  2  : извлечено точно (доверие 1)  [6BF1F7A5]  (AR v2)
Трек  3  : извлечено точно (доверие 1)  [36C296FD]  (AR v2)
Трек  4  : извлечено точно (доверие 1)  [9D847BE1]  (AR v2)
Трек  5  : извлечено точно (доверие 1)  [EA369072]  (AR v2)
Трек  6  : извлечено точно (доверие 1)  [A8465EE4]  (AR v2)
Трек  7  : извлечено точно (доверие 1)  [EB4AD9AB]  (AR v2)
Трек  8  : извлечено точно (доверие 1)  [7BD8A87D]  (AR v2)
Трек  9  : извлечено точно (доверие 1)  [3671CD44]  (AR v2)
Все треки извлечены точно
Конец отчёта
---- CUETools DB Plugin V2.1.6
[CTDB TOCID: inwirVWEAXYPuRgKYXlZ_J4IWV8-] found
Submit result: inwirVWEAXYPuRgKYXlZ_J4IWV8- has been confirmed
Track | CTDB Status
1   | (5/5) Accurately ripped
2   | (5/5) Accurately ripped
3   | (5/5) Accurately ripped
4   | (5/5) Accurately ripped
5   | (5/5) Accurately ripped
6   | (5/5) Accurately ripped
7   | (5/5) Accurately ripped
8   | (3/5) Accurately ripped, or (2/5) differs in 2 samples @01:06:28,01:12:37
9   | (5/5) Accurately ripped
==== Контрольная сумма отчёта 433C6904AC13FA13C158721E300E36A150F97E597F1C696509426B4DA7AFABAE ====

Лог проверки качества

AUDIOCHECKER v2.0 beta (build 457) - by Dester - opdester@freemail.hu
~~~~~~~~~~~~~~~~~~~~~~~~~~~~~~~~~~
-=== DO NOT EDIT THIS FILE! ===-
Path: ...\EAC
1 -=- Supermax - Living In A World.flac -=- CDDA (100%)
150685636

Скриншот спектра частот



Об альбоме (сборнике)

Неофициальное переиздание альбома «Something in My Heart». Все песни написаны и сочинены К. Хауэнштейном, кроме «Нага Hara», написанной Ричардом Шонхерцем.

Состав

Kurt Hauenstein: lead vocals, bass, keyboards, percussion, comp.programing.
Guitars: Johann Daansen, Helmut Bibl.
Drums: Curt Cress.
Trumpet: Andy Haderer, Вumі Fian.
Saxophone: Christian Felke.
Vocals: Victoria Miles, Nadine Holloway, Linda Sharrock.
Special guest: “Vienna Symphonic Orchestra ” on “Scream Of A Butterfly”.
Other forum [Profile] [PM]
Display posts from previous:    
Reply to topic

The time now is: Today 16:26

All times are GMT + 3 Hours



You cannot post new topics in this forum
You cannot reply to topics in this forum
You cannot edit your posts in this forum
You cannot delete your posts in this forum
You cannot vote in polls in this forum
You cannot attach files in this forum
You cannot download files in this forum