Today is a free download without charge Download

Boney M. - Gold (2019) 3CD [FLAC|Lossless|image + .cue] <Disco>

Reply to topic
 
Author
Message

Soldat_5 ®

Longevity: 1 month 5 days

Posts: 64

Торрент-статистика

Post 29-Nov-2019 09:35

[Quote]

Boney M. - Gold (2019) 3CD - Жанр: Disco
Издание: Crimson – CRIMCD651
Продолжительность: 03:28:32
Источник: brookman
Кодек: FLAC
Битрейт: Lossless
Тип рипа: image + .cue
Треклист:
CD1:
01. Daddy Cool 3:28
02. Sunny 4:02
03. Ma Baker 4:34
04. No Woman No Cry 4:59
05. Belfast 3:30
06. Dancing In The Streets (7' Version) 3:58
07. El Lute (7' Version) 5:09
08. Kalimba De Luna (7' Version) 4:32
09. Ribbons Of Blue 4:04
10. Bahama Mama (7' Version) 3:35
11. I'm Born Again (7' Version) 4:21
12. Children Of Paradise 5:18

Продолжение треклиста

13. Jambo - Hakuna Matata (No Problem) (7' Version) 3:39
14. Somewhere In The World (7' Version) 4:26
15. Young, Free And Single (7' Version) 4:19
16. 10,000 Lightyears 4:32
17. Boonoonoonoos 4:42
18. Hooray! Hooray! It's A Holi-Holiday (7' Version) 3:56
Продолжительность: 01:17:07

Отчёт EAC&#58;

Exact Audio Copy V1.1 from 23. June 2015
EAC extraction logfile from 24. November 2019, 14:30
Boney M / 2019 - Gold (Disc 01)
Used drive : MATSHITADVD+-RW SW830 Adapter: 1 ID: 0
Read mode : Secure
Utilize accurate stream : Yes
Defeat audio cache : Yes
Make use of C2 pointers : No
Read offset correction : 6
Overread into Lead-In and Lead-Out : No
Fill up missing offset samples with silence : Yes
Delete leading and trailing silent blocks : No
Null samples used in CRC calculations : Yes
Used interface : Native Win32 interface for Win NT & 2000
Used output format : User Defined Encoder
Selected bitrate : 768 kBit/s
Quality : High
Add ID3 tag : No
Command line compressor : C:\Program Files (x86)\Exact Audio Copy\FLAC\FLAC.EXE
Additional command line options : -6 -V -T "ARTIST=%artist%" -T "TITLE=%title%" -T "ALBUM=%albumtitle%" -T "DATE=%year%" -T "TRACKNUMBER=%tracknr%" -T "GENRE=%genre%" -T "COMMENT=%comment%" -T "BAND=%albuminterpret%" -T "ALBUMARTIST=%albuminterpret%" -T "COMPOSER=%composer%" %haslyrics%--tag-from-file=LYRICS="%lyricsfile%"%haslyrics% -T "DISCNUMBER=%cdnumber%" -T "TOTALDISCS=%totalcds%" -T "TOTALTRACKS=%numtracks%" %hascover%--picture="%coverfile%"%hascover% %source% -o %dest%
TOC of the extracted CD
Track | Start | Length | Start sector | End sector
---------------------------------------------------------
1 | 0:00.00 | 3:28.21 | 0 | 15620
2 | 3:28.21 | 4:02.28 | 15621 | 33798
3 | 7:30.49 | 4:34.70 | 33799 | 54418
4 | 12:05.44 | 4:59.42 | 54419 | 76885
5 | 17:05.11 | 3:30.68 | 76886 | 92703
6 | 20:36.04 | 3:59.57 | 92704 | 110685
7 | 24:35.61 | 5:10.52 | 110686 | 133987
8 | 29:46.38 | 4:33.06 | 133988 | 154468
9 | 34:19.44 | 4:04.72 | 154469 | 172840
10 | 38:24.41 | 3:37.02 | 172841 | 189117
11 | 42:01.43 | 4:22.17 | 189118 | 208784
12 | 46:23.60 | 5:19.41 | 208785 | 232750
13 | 51:43.26 | 3:39.59 | 232751 | 249234
14 | 55:23.10 | 4:27.05 | 249235 | 269264
15 | 59:50.15 | 4:20.01 | 269265 | 288765
16 | 64:10.16 | 4:32.66 | 288766 | 309231
17 | 68:43.07 | 4:43.15 | 309232 | 330471
18 | 73:26.22 | 3:56.06 | 330472 | 348177
Range status and errors
Selected range
Filename C:\Users\Boris\Desktop\lossless-galaxy.ru\BonMGol\CD1\Boney M - 2019 - Gold (Disc 01).wav
Peak level 94.3 %
Extraction speed 3.5 X
Range quality 99.9 %
Test CRC 57DC775D
Copy CRC 57DC775D
Copy OK
No errors occurred
AccurateRip summary
Track 1 not present in database
Track 2 not present in database
Track 3 not present in database
Track 4 not present in database
Track 5 not present in database
Track 6 not present in database
Track 7 not present in database
Track 8 not present in database
Track 9 not present in database
Track 10 not present in database
Track 11 not present in database
Track 12 not present in database
Track 13 not present in database
Track 14 not present in database
Track 15 not present in database
Track 16 not present in database
Track 17 not present in database
Track 18 not present in database
None of the tracks are present in the AccurateRip database
End of status report
---- CUETools DB Plugin V2.1.6
[CTDB TOCID: LRE51E8VlF1Qjb37HET0tq_tnA0-] found
Submit result: LRE51E8VlF1Qjb37HET0tq_tnA0- has been confirmed
Track | CTDB Status
1 | (1/1) Accurately ripped
2 | (1/1) Accurately ripped
3 | (1/1) Accurately ripped
4 | (1/1) Accurately ripped
5 | (1/1) Accurately ripped
6 | (1/1) Accurately ripped
7 | (1/1) Accurately ripped
8 | (1/1) Accurately ripped
9 | (1/1) Accurately ripped
10 | (1/1) Accurately ripped
11 | (1/1) Accurately ripped
12 | (1/1) Accurately ripped
13 | (1/1) Accurately ripped
14 | (1/1) Accurately ripped
15 | (1/1) Accurately ripped
16 | (1/1) Accurately ripped
17 | (1/1) Accurately ripped
18 | (1/1) Accurately ripped
==== Log checksum 61BC23F6011C8321D198E28A157D78F451DA35DFF4ECF9D7F986DCC251A83044 ====

CD2&#58;

01. Rivers Of Babylon 4:20
02. Gotta Go Home (7' Version) 3:59
03. Brown Girl In The Ring 4:02
04. Rasputin (7' Version) 4:43
05. Baby, Do You Wanna Bump 3:40
06. I See A Boat On The River (7' Version) 4:40
07. Exodus (Noah's Ark 2001) (7' Version) 4:38
08. The Carnival Is Over (Goodbye True Lover) (Original Single Version) 4:53
09. My Cherie Amour 4:04
10. Still I'm Sad 3:39
11. He Was A Steppenwolf 6:51
12. Future World 3:50
13. Chica Da Silva 4:33
14. My Friend Jack 4:41
15. We Kill The World 4:30
16. Consuela Biaz (Single Version) 5:20
17. Painter Man 3:10
Продолжительность: 01:15:33

Отчёт EAC&#58;

Exact Audio Copy V1.1 from 23. June 2015
EAC extraction logfile from 24. November 2019, 15:06
Boney M / Gold
Used drive : MATSHITADVD+-RW SW830 Adapter: 1 ID: 0
Read mode : Secure
Utilize accurate stream : Yes
Defeat audio cache : Yes
Make use of C2 pointers : No
Read offset correction : 6
Overread into Lead-In and Lead-Out : No
Fill up missing offset samples with silence : Yes
Delete leading and trailing silent blocks : No
Null samples used in CRC calculations : Yes
Used interface : Native Win32 interface for Win NT & 2000
Used output format : User Defined Encoder
Selected bitrate : 768 kBit/s
Quality : High
Add ID3 tag : No
Command line compressor : C:\Program Files (x86)\Exact Audio Copy\FLAC\FLAC.EXE
Additional command line options : -6 -V -T "ARTIST=%artist%" -T "TITLE=%title%" -T "ALBUM=%albumtitle%" -T "DATE=%year%" -T "TRACKNUMBER=%tracknr%" -T "GENRE=%genre%" -T "COMMENT=%comment%" -T "BAND=%albuminterpret%" -T "ALBUMARTIST=%albuminterpret%" -T "COMPOSER=%composer%" %haslyrics%--tag-from-file=LYRICS="%lyricsfile%"%haslyrics% -T "DISCNUMBER=%cdnumber%" -T "TOTALDISCS=%totalcds%" -T "TOTALTRACKS=%numtracks%" %hascover%--picture="%coverfile%"%hascover% %source% -o %dest%
TOC of the extracted CD
Track | Start | Length | Start sector | End sector
---------------------------------------------------------
1 | 0:00.00 | 4:20.67 | 0 | 19566
2 | 4:20.67 | 4:00.27 | 19567 | 37593
3 | 8:21.19 | 4:02.58 | 37594 | 55801
4 | 12:24.02 | 4:44.22 | 55802 | 77123
5 | 17:08.24 | 3:41.41 | 77124 | 93739
6 | 20:49.65 | 4:41.02 | 93740 | 114816
7 | 25:30.67 | 4:38.64 | 114817 | 135730
8 | 30:09.56 | 4:54.14 | 135731 | 157794
9 | 35:03.70 | 4:05.16 | 157795 | 176185
10 | 39:09.11 | 3:39.63 | 176186 | 192673
11 | 42:48.74 | 6:53.12 | 192674 | 223660
12 | 49:42.11 | 3:51.19 | 223661 | 241004
13 | 53:33.30 | 4:34.07 | 241005 | 261561
14 | 58:07.37 | 4:41.49 | 261562 | 282685
15 | 62:49.11 | 4:31.31 | 282686 | 303041
16 | 67:20.42 | 5:20.68 | 303042 | 327109
17 | 72:41.35 | 3:10.34 | 327110 | 341393
Range status and errors
Selected range
Filename C:\Users\Boris\Desktop\lossless-galaxy.ru\BonMGol\CD2\Boney M - Gold.wav
Peak level 94.3 %
Extraction speed 8.4 X
Range quality 100.0 %
Test CRC 364BC3BD
Copy CRC 364BC3BD
Copy OK
No errors occurred
AccurateRip summary
Track 1 not present in database
Track 2 not present in database
Track 3 not present in database
Track 4 not present in database
Track 5 not present in database
Track 6 not present in database
Track 7 not present in database
Track 8 not present in database
Track 9 not present in database
Track 10 not present in database
Track 11 not present in database
Track 12 not present in database
Track 13 not present in database
Track 14 not present in database
Track 15 not present in database
Track 16 not present in database
Track 17 not present in database
None of the tracks are present in the AccurateRip database
End of status report
---- CUETools DB Plugin V2.1.6
[CTDB TOCID: BCACrPaBli4pbXwcDlF8qQMVOGQ-] found
Submit result: BCACrPaBli4pbXwcDlF8qQMVOGQ- has been confirmed
Track | CTDB Status
1 | (1/1) Accurately ripped
2 | (1/1) Accurately ripped
3 | (1/1) Accurately ripped
4 | (1/1) Accurately ripped
5 | (1/1) Accurately ripped
6 | (1/1) Accurately ripped
7 | (1/1) Accurately ripped
8 | (1/1) Accurately ripped
9 | (1/1) Accurately ripped
10 | (1/1) Accurately ripped
11 | (1/1) Accurately ripped
12 | (1/1) Accurately ripped
13 | (1/1) Accurately ripped
14 | (1/1) Accurately ripped
15 | (1/1) Accurately ripped
16 | (1/1) Accurately ripped
17 | (1/1) Accurately ripped
==== Log checksum 3CEFC6F5329B8D3E103208902446D00ADA39D8F7C55575F25D48A8D7CA8E4A43 ====

CD3&#58;

01. Ma Baker-Somebody Scream (Sash! Radio Edit) 3:25
02. Sunny (Mousse T. Sexy Disco Radio Mix) 3:26
03. Barbra Streisand (The Most Wanted Woman (Radio Mix) 3:13
04. Happy Song 4:20
05. Papa Chico (Radio Version) 3:53
06. Stories (Radio Mix) 4:19
07. Bang Bang Lulu (7' Version) 3:32
08. Gadda-Da-Vida (7' Version) 5:05
09. Magic Mega Mix 2006 5:11
10. Mary's Boy Child- Oh My Lord (7' Version) 5:42
11. Little Drummer Boy 4:21
12. White Christmas (Remix) 3:22
13. Feliz Navidad 3:08
14. Jingle Bells 2:54
Продолжительность: 00:55:52

Отчёт EAC&#58;

Exact Audio Copy V1.1 from 23. June 2015
EAC extraction logfile from 24. November 2019, 15:43
Boney M / 2019 - Gold (Disc 03)
Used drive : MATSHITADVD+-RW SW830 Adapter: 1 ID: 0
Read mode : Secure
Utilize accurate stream : Yes
Defeat audio cache : Yes
Make use of C2 pointers : No
Read offset correction : 6
Overread into Lead-In and Lead-Out : No
Fill up missing offset samples with silence : Yes
Delete leading and trailing silent blocks : No
Null samples used in CRC calculations : Yes
Used interface : Native Win32 interface for Win NT & 2000
Used output format : User Defined Encoder
Selected bitrate : 768 kBit/s
Quality : High
Add ID3 tag : No
Command line compressor : C:\Program Files (x86)\Exact Audio Copy\FLAC\FLAC.EXE
Additional command line options : -6 -V -T "ARTIST=%artist%" -T "TITLE=%title%" -T "ALBUM=%albumtitle%" -T "DATE=%year%" -T "TRACKNUMBER=%tracknr%" -T "GENRE=%genre%" -T "COMMENT=%comment%" -T "BAND=%albuminterpret%" -T "ALBUMARTIST=%albuminterpret%" -T "COMPOSER=%composer%" %haslyrics%--tag-from-file=LYRICS="%lyricsfile%"%haslyrics% -T "DISCNUMBER=%cdnumber%" -T "TOTALDISCS=%totalcds%" -T "TOTALTRACKS=%numtracks%" %hascover%--picture="%coverfile%"%hascover% %source% -o %dest%
TOC of the extracted CD
Track | Start | Length | Start sector | End sector
---------------------------------------------------------
1 | 0:00.00 | 3:25.52 | 0 | 15426
2 | 3:25.52 | 3:27.27 | 15427 | 30978
3 | 6:53.04 | 3:13.60 | 30979 | 45513
4 | 10:06.64 | 4:20.58 | 45514 | 65071
5 | 14:27.47 | 3:54.15 | 65072 | 82636
6 | 18:21.62 | 4:20.08 | 82637 | 102144
7 | 22:41.70 | 3:32.56 | 102145 | 118100
8 | 26:14.51 | 5:06.06 | 118101 | 141056
9 | 31:20.57 | 5:11.70 | 141057 | 164451
10 | 36:32.52 | 5:43.67 | 164452 | 190243
11 | 42:16.44 | 4:22.56 | 190244 | 209949
12 | 46:39.25 | 3:23.29 | 209950 | 225203
13 | 50:02.54 | 3:09.58 | 225204 | 239436
14 | 53:12.37 | 2:54.23 | 239437 | 252509
Range status and errors
Selected range
Filename C:\Users\Boris\Desktop\lossless-galaxy.ru\BonMGol\CD3\Boney M - 2019 - Gold (Disc 03).wav
Peak level 99.0 %
Extraction speed 7.0 X
Range quality 99.9 %
Test CRC 59268D00
Copy CRC 59268D00
Copy OK
No errors occurred
AccurateRip summary
Track 1 not present in database
Track 2 not present in database
Track 3 not present in database
Track 4 not present in database
Track 5 not present in database
Track 6 not present in database
Track 7 not present in database
Track 8 not present in database
Track 9 not present in database
Track 10 not present in database
Track 11 not present in database
Track 12 not present in database
Track 13 not present in database
Track 14 not present in database
None of the tracks are present in the AccurateRip database
End of status report
---- CUETools DB Plugin V2.1.6
[CTDB TOCID: yvXG8M6_tq3vMLs0ugok7CG3jpg-] found
Submit result: yvXG8M6_tq3vMLs0ugok7CG3jpg- has been confirmed
Track | CTDB Status
1 | (1/1) Accurately ripped
2 | (1/1) Accurately ripped
3 | (1/1) Accurately ripped
4 | (1/1) Accurately ripped
5 | (1/1) Accurately ripped
6 | (1/1) Accurately ripped
7 | (1/1) Accurately ripped
8 | (1/1) Accurately ripped
9 | (1/1) Accurately ripped
10 | (1/1) Accurately ripped
11 | (1/1) Accurately ripped
12 | (1/1) Accurately ripped
13 | (1/1) Accurately ripped
14 | (1/1) Accurately ripped
==== Log checksum B3519A0101052FE81F2B9A3AD3D56F560B14FE83E162E94483A8229C337D2A7F ====
Other forum [Profile] [PM]
Display posts from previous:    
Reply to topic

The time now is: Today 17:40

All times are GMT + 3 Hours



You cannot post new topics in this forum
You cannot reply to topics in this forum
You cannot edit your posts in this forum
You cannot delete your posts in this forum
You cannot vote in polls in this forum
You cannot attach files in this forum
You cannot download files in this forum