Today is a free download without charge Download

Дикий пляж / Savage Beach (1989) BDRip [H.264] [AVO]

Reply to topic
 
Author
Message

Soldat_5 ®

Longevity: 2 months 13 days

Posts: 95

Торрент-статистика

Post 24-Nov-2019 14:59

[Quote]

Дикий пляж / Savage Beach (1989) BDRip [H.264] - Производство: США / Malibu Bay Films
Жанр: Боевик, Приключения, Эротика
Режиссер: Энди Сидарис
Продюсер: Арлин Сидарис
Актеры: Дона Спейр, Хоуп Мари Карлтон, Джон Эпри, Брюс Пенхалл, Родриго Обрегон, Майкл Микаса, Майкл Дж. Шэйн, Дэнн Секи, Аль Леонг, Эрик Чен
Описание:
Ещё одна история от Энди Сидариса про девушек из Управления по борьбе с наркотиками. Сюжет в целом присутствует: тут и федеральные агенты, и затонувшее японское судно с золотом времён 2-ой Мировой, и различные бандюки, пытающиеся это золото присвоить. Но основная цель господина Сидариса, разумеется - показать побольше сцен с полу- и полностью обнажёнными девушками на фоне красивейшей природы, да ещё и с оружием в руках, что смотрится очень даже превосходно...

Возраст: 18+ (зрителям, достигшим 18 лет. запрещено для детей)
Рейтинг MPAA: R (лицам до 17 лет обязательно присутствие взрослого)
Продолжительность: 01:34:39
Качество видео: BDRip
Перевод: Авторский, Вартан Дохалов
Субтитры: Английские (SDH)
Видео: AVC/H.264, 1024x576, ~2916 Kbps
Аудио 1: AC3, 2 ch, 192 Kbps, 48.0 kHz – Русский
Аудио 2: AC3, 2 ch, 192 Kbps, 48.0 kHz – Английский

MediaInfo:

Общее
Уникальный идентификатор : 183781998842890256690224483656560334297 (0x8A43201F8749C92F81FAE86654B0D5D9)
Полное имя : B:\Downloads\Дикий пляж. 1989. NNMCLUB.mkv
Формат : Matroska
Версия формата : Version 4 / Version 2
Размер файла : 2,18 Гбайт
Продолжительность : 1 ч. 34 м.
Общий поток : 3302 Кбит/сек
Дата кодирования : UTC 2019-10-06 00:04:28
Программа кодирования : mkvmerge v7.9.0 ('Birds') 64bit
Библиотека кодирования : libebml v1.3.1 + libmatroska v1.4.2
Видео
Идентификатор : 1
Формат : AVC
Формат/Информация : Advanced Video Codec
Профиль формата : High@L4.1
Настройки формата : CABAC / 12 Ref Frames
Параметр CABAC формата : Да
Параметр RefFrames формата : 12 кадров
Идентификатор кодека : V_MPEG4/ISO/AVC
Продолжительность : 1 ч. 34 м.
Битрейт : 2916 Кбит/сек
Ширина : 1024 пикселя
Высота : 576 пикселей
Соотношение сторон : 16:9
Режим частоты кадров : Постоянный
Частота кадров : 23,976 (24000/1001) кадра/сек
Цветовое пространство : YUV
Субдискретизация насыщенности : 4:2:0
Битовая глубина : 8 бит
Тип развёртки : Прогрессивная
Бит/(Пиксели*Кадры) : 0.206
Размер потока : 1,93 Гбайт (88%)
Заголовок : Savage Beach
Библиотека кодирования : x264 core 146 r2538 121396c
Настройки программы : cabac=1 / ref=12 / deblock=1:-1:-1 / analyse=0x3:0x113 / me=umh / subme=10 / psy=1 / psy_rd=1.00:0.10 / mixed_ref=1 / me_range=32 / chroma_me=1 / trellis=2 / 8x8dct=1 / cqm=0 / deadzone=21,11 / fast_pskip=0 / chroma_qp_offset=-3 / threads=6 / lookahead_threads=1 / sliced_threads=0 / nr=0 / decimate=0 / interlaced=0 / bluray_compat=0 / constrained_intra=0 / bframes=7 / b_pyramid=2 / b_adapt=2 / b_bias=0 / direct=3 / weightb=1 / open_gop=0 / weightp=2 / keyint=250 / keyint_min=25 / scenecut=40 / intra_refresh=0 / rc_lookahead=60 / rc=2pass / mbtree=1 / bitrate=2916 / ratetol=1.0 / qcomp=0.60 / qpmin=0 / qpmax=69 / qpstep=4 / cplxblur=20.0 / qblur=0.5 / vbv_maxrate=14000 / vbv_bufsize=14000 / nal_hrd=none / filler=0 / ip_ratio=1.40 / aq=1:1.00
Язык : English
Default : Да
Forced : Нет
Аудио #1
Идентификатор : 2
Формат : AC-3
Формат/Информация : Audio Coding 3
Идентификатор кодека : A_AC3
Продолжительность : 1 ч. 34 м.
Вид битрейта : Постоянный
Битрейт : 192 Кбит/сек
Каналы : 2 канала
Расположение каналов : Front: L R
Частота : 48,0 КГц
Частота кадров : 31,250 кадров/сек (1536 SPF)
Битовая глубина : 16 бит
Метод сжатия : С потерями
Задержка видео : 4 с. 0 мс.
Размер потока : 130 Мбайт (6%)
Заголовок : AVO Вартан Дохалов
Язык : Russian
ServiceKind/String : Complete Main
Default : Да
Forced : Нет
Аудио #2
Идентификатор : 3
Формат : AC-3
Формат/Информация : Audio Coding 3
Идентификатор кодека : A_AC3
Продолжительность : 1 ч. 34 м.
Вид битрейта : Постоянный
Битрейт : 192 Кбит/сек
Каналы : 2 канала
Расположение каналов : Front: L R
Частота : 48,0 КГц
Частота кадров : 31,250 кадров/сек (1536 SPF)
Битовая глубина : 16 бит
Метод сжатия : С потерями
Размер потока : 130 Мбайт (6%)
Заголовок : Английский
Язык : English
ServiceKind/String : Complete Main
Default : Нет
Forced : Нет
Текст
Идентификатор : 4
Формат : UTF-8
Идентификатор кодека : S_TEXT/UTF8
Идентификатор кодека/Информация : UTF-8 Plain Text
Продолжительность : 1 ч. 33 м.
Битрейт : 45 бит/сек
ElementCount : 1073
Размер потока : 31,6 Кбайт (0%)
Заголовок : SDH
Язык : English
Default : Нет
Forced : Нет
Скриншоты:

Дополнительные скриншоты:

Other forum [Profile] [PM]
Display posts from previous:    
Reply to topic

The time now is: Today 11:14

All times are GMT + 3 Hours



You cannot post new topics in this forum
You cannot reply to topics in this forum
You cannot edit your posts in this forum
You cannot delete your posts in this forum
You cannot vote in polls in this forum
You cannot attach files in this forum
You cannot download files in this forum