Today is a free download without charge Download

Они / Haunt (Скотт Бек, Брайан Вудс) [2019, Ужасы, триллер, WEB-DLRip-AVC] [DUB] [iTunes]

Reply to topic
 
Author
Message

Орлов Владимир ®

Gender:

Longevity: 2 months 28 days

Posts: 356

Location: Россия , Долгопрудный, Моск.обл

Торрент-статистика

Post 18-Nov-2019 17:35

[Quote]

--Они / Haunt--
Информация о фильме
Название: Они
Оригинальное название: Haunt
Страна: США
Производство: Broken Road Productions, Sierra Pictures (III), Nickel City Pictures
Год выпуска: 2019
Жанр: ужасы, триллер
Продолжительность: 01:32:35--Режиссеры: Брайан Вудс / Bryan Woods, Скотт Бек / Scott Beck
В ролях: Кэти Стивенс, Уилл Бриттейн, Лорин Алиса МакКлейн, Эндрю Колдуэлл, Шази Раджа, Шулер Хелфорд, Филлип Джонсон Ричардсон, Чейни Морроу, Джастин Марксен, Терри Партыка, Джастин Роуз, Дэмиэн Маффей, Шулер Уайт, Сэмюэл К. Хант--Описание: На Хэллоуин в поисках острых ощущений группа студентов отправляется за город на аттракцион «Комнаты страха», который обещает воплотить кошмары из самых жутких фильмов ужасов. Вскоре друзья понимают, что попали вовсе не в место для игр, под масками клоунов скрываются не люди, а существа из другого мира, а сами они теперь — герои настоящего хоррора и должны очень сильно постараться, чтобы выбраться из адского аттракциона живыми...-- --Перевод: Профессиональный (полное дублирование) | iTunes
Субтитры: нет--Качество: WEB-DLRip-AVC
Формат: МКV
Видео кодек: AVC
Аудио кодек: AC3
Видео: 776x320 (2.40:1), 23.976 fps, MPEG-4 AVC ~920 kbps avg
Аудио: 48.0 kHz, AC3 Dolby Digital, 2/0 (L,R) ch, ~192 kbps avg--Дата премьеры (мир): 23 августа 2019
Дата премьеры (РФ): 17 октября 2019, «Экспонента»-- --

Тех.данные видеофайла

General
Complete name: Они (2019) WEB-DLRip-AVC_ivanes.mkv
Format: Matroska
Format version: Version 2
File size: 746 MiB
Duration: 1 h 32 min
Overall bit rate: 1 127 kb/s
Movie name: Они (2019) WEB-DLRip-AVC_ivanes
Encoded date: UTC 2019-11-18 03:57:29
Writing application: mkvmerge v4.4.0 ('Die Wiederkehr') сборка от Jan 3 2011 21:40:45
Writing library: libebml v1.0.0 + libmatroska v1.0.0
Cover: Yes
Attachments: cover.jpg
Video
ID: 1
Format: AVC
Format/Info: Advanced Video Codec
Format profile: High@L4.1
Format settings: CABAC / 11 Ref Frames
Format settings, CABAC: Yes
Format settings, Reference: 11 frames
Codec ID: V_MPEG4/ISO/AVC
Duration: 1 h 32 min
Bit rate: 934 kb/s
Width: 776 pixels
Height: 320 pixels
Display aspect ratio: 2.40:1
Frame rate mode: Constant
Frame rate: 23.976 (24000/1001) FPS
Color space: YUV
Chroma subsampling: 4:2:0
Bit depth: 8 bits
Scan type: Progressive
Bits/(Pixel*Frame): 0.157
Stream size: 604 MiB (81%)
Title: Rip by ivanes
Writing library: x264 core 158 r2984+49 6932f4a t_mod_New [0-bit@all X86]
Encoding settings: cabac=1 / ref=11 / deblock=1:-3:-3 / analyse=0x3:0x113 / me=umh / subme=10 / psy=1 / fade_compensate=0.00 / psy_rd=1.00:0.00 / mixed_ref=1 / me_range=32 / chroma_me=1 / trellis=2 / 8x8dct=1 / cqm=0 / deadzone=21,11 / fast_pskip=0 / chroma_qp_offset=-2 / threads=12 / lookahead_threads=2 / sliced_threads=0 / nr=0 / decimate=1 / interlaced=0 / bluray_compat=0 / constrained_intra=0 / fgo=0 / bframes=12 / b_pyramid=2 / b_adapt=2 / b_bias=0 / direct=1 / weightb=1 / open_gop=0 / weightp=2 / keyint=240 / keyint_min=23 / scenecut=40 / intra_refresh=0 / rc_lookahead=60 / rc=2pass / mbtree=0 / bitrate=934 / ratetol=1.0 / qcomp=0.60 / qpmin=0:0:0 / qpmax=69:69:69 / qpstep=4 / cplxblur=20.0 / qblur=0.5 / vbv_maxrate=50000 / vbv_bufsize=62500 / nal_hrd=none / filler=0 / ip_ratio=1.40 / pb_ratio=1.30 / aq=1:1.00 / aq-sensitivity=10.00 / aq-factor=1.00:1.00:1.00 / aq2=0 / aq3=0
Default: Yes
Forced: No
Statistics Tags Issue: mkvmerge v29.0.0 ('Like It Or Not') 64-bit 2019-11-18 03:56:03 / mkvmerge v4.4.0 ('Die Wiederkehr') сборка от Jan 3 2011 21:40:45 2019-11-18 03:57:29
FromStats_BitRate: 933485
FromStats_Duration: 01:32:35.592000000
FromStats_FrameCount: 133201
FromStats_StreamSize: 648258042
Audio
ID: 2
Format: AC-3
Format/Info: Audio Coding 3
Commercial name: Dolby Digital
Codec ID: A_AC3
Duration: 1 h 32 min
Bit rate mode: Constant
Bit rate: 192 kb/s
Channel(s): 2 channels
Channel layout: L R
Sampling rate: 48.0 kHz
Frame rate: 31.250 FPS (1536 SPF)
Compression mode: Lossy
Stream size: 127 MiB (17%)
Title: iTunes
Language: Russian
Service kind: Complete Main
Default: Yes
Forced: No

Скриншоты

     

_________________
Other forum [Profile] [PM]
Similar theme
Forum Topic Author Torrent Replies Last Post
./templates/default/images/folder_dl.gif Новинки (HD|DVD|BD|WEB|TV|SAT|PDTV|-Rip) Они / Haunt (Скотт Бек, Брайан Вудс) [2019, Ужасы, триллер, WEB-DLRip] [DUB] [iTunes] Орлов Владимир
1 | 0

0 | 203

0

2019-11-18 00:33
Орлов Владимир Latest
Display posts from previous:    
Reply to topic

The time now is: Today 18:56

All times are GMT + 3 Hours



You cannot post new topics in this forum
You cannot reply to topics in this forum
You cannot edit your posts in this forum
You cannot delete your posts in this forum
You cannot vote in polls in this forum
You cannot attach files in this forum
You cannot download files in this forum