Today is a free download without charge Download

(Рор) VA – XXXL 10. Максимальный размер удовольствий - 2003, FLAC (image + .cue), lossless

Reply to topic
 
Author
Message

Soldat_5 ®

Longevity: 1 month 3 days

Posts: 48

Торрент-статистика

Post 14-Nov-2019 16:04

[Quote]

VA – XXXL 10. Максимальный размер удовольствий
Страна: Россия
Жанр: Рор
Год выпуска: 2003
Формат: FLAC (tracks + .cue)
Битрейт аудио: lossless
Продолжительность: 01:17:16
Трэклист:
01. Андрей Данилко ( Верка Сердючка ) - Чита дрита
02. Валерия - Чёрно-белый цвет
03. Hi-Fi - Седьмой лепесток
04. Катя Лель - Муси-пуси
05. Авраам Руссо - Знаю
06. Диана Гурцкая - Нежная
07. Глюк'Oza - Карина
08. Пьер Нарцисс - Целуй-целуй
09. Пропаганда - Яй-я
10. Алла Пугачева - Исчезнет грусть
11. Чай вдвоём - Он не разлюбит

Продолжение треклиста:

12. Валерий Меладзе - Се-ля-ви
13. Фабрика - Девушки фабричные
14. Иванушки Int. - Билетик в кино
15. Кристина Орбакайте - Перелётная птица
16. Мишель - У тебя нет сердца
17. Сергей Безруков и гр. Любэ - Берёзы
18. виа Гра - Биология
19. Витас - Сердцебиение
20. Дмитрий Маликов - Чёрный дрозд и белый аист
21. Reflex - Зима
22. Наташа Королёва - Твой мир
23. Наталья Ветлицкая - Пламя страсти
24. Корни - Ты узнаешь её
25. Народный артист - Зажигай
26. Гости из будущего - Новогодняя

Отчёт ЕАС:

Код:
Exact Audio Copy V1.3 from 2. September 2016
Отчёт EAC об извлечении, выполненном 9. ноября 2019, 22:05
Various Artists / XXXL 10. Максимальный размер удовольствий
Дисковод: Optiarc DVD RW AD-7240S   Adapter: 1  ID: 1
Режим чтения                 : Достоверность
Использование точного потока : Да
Отключение кэша аудио        : Да
Использование указателей C2  : Нет
Коррекция смещения при чтении                     : 48
Способность читать области Lead-in и Lead-out     : Нет
Заполнение пропущенных сэмплов тишиной            : Да
Удаление блоков с тишиной в начале и конце        : Нет
При вычислениях CRC использовались нулевые сэмплы : Да
Интерфейс                                         : Встроенный Win32-интерфейс для Win NT/2000
Обработка зазоров                                 : Добавлено к предыдущему треку
Выходной формат          : Пользовательский кодировщик
Выбранный битрейт        : 128 kBit/s
Качество                 : Высокий
Добавление ID3-тега      : Нет
Утилита сжатия           : C:\Program Files (x86)\Exact Audio Copy\Flac\flac.exe
Дополнительные параметры :  -8 -V -T "TITLE=%title%" -T "ARTIST=%artist%" -T "ALBUMARTIST=%albumartist%" -T "ALBUM=%albumtitle%" -T "DATE=%year%" -T "TRACKNUMBER=%tracknr%" -T "TRACKTOTAL=%numtracks%" -T "GENRE=%genre%" -T "COMMENT=%comment%" -T "PERFORMER=%albuminterpret%" -T "COMPOSER=%composer%" %source% -o %dest%
TOC извлечённого CD
     Трек |   Старт  | Длительность | Начальный сектор | Конечный сектор
    ---------------------------------------------------------------------
       1  |  0:00.00 |    2:47.33   |           0      |      12557
       2  |  2:47.33 |    2:49.64   |       12558      |      25296
       3  |  5:37.22 |    3:04.53   |       25297      |      39149
       4  |  8:42.00 |    2:10.73   |       39150      |      48972
       5  | 10:52.73 |    3:32.12   |       48973      |      64884
       6  | 14:25.10 |    2:29.58   |       64885      |      76117
       7  | 16:54.68 |    2:30.73   |       76118      |      87440
       8  | 19:25.66 |    2:54.46   |       87441      |     100536
       9  | 22:20.37 |    2:55.66   |      100537      |     113727
      10  | 25:16.28 |    3:40.10   |      113728      |     130237
      11  | 28:56.38 |    3:00.66   |      130238      |     143803
      12  | 31:57.29 |    3:02.31   |      143804      |     157484
      13  | 34:59.60 |    3:36.64   |      157485      |     173748
      14  | 38:36.49 |    3:15.06   |      173749      |     188379
      15  | 41:51.55 |    3:06.66   |      188380      |     202395
      16  | 44:58.46 |    2:48.17   |      202396      |     215012
      17  | 47:46.63 |    2:42.57   |      215013      |     227219
      18  | 50:29.45 |    3:02.63   |      227220      |     240932
      19  | 53:32.33 |    2:30.18   |      240933      |     252200
      20  | 56:02.51 |    4:00.65   |      252201      |     270265
      21  | 60:03.41 |    2:47.43   |      270266      |     282833
      22  | 62:51.09 |    2:42.50   |      282834      |     295033
      23  | 65:33.59 |    2:36.69   |      295034      |     306802
      24  | 68:10.53 |    3:09.69   |      306803      |     321046
      25  | 71:20.47 |    2:57.35   |      321047      |     334356
      26  | 74:18.07 |    2:57.53   |      334357      |     347684
Трек  1
     Имя файла E:\Раздачи\NNMClub-eloychik ®\Various Artists - XXXL 10-Максимальный размер удовольствий [NNM-Club.to]\01.Андрей Данилко ( Верка Сердючка ) - Чита дрита.wav
     Длина предзазора  0:00:02.00
     Пиковый уровень 98.8 %
     Скорость извлечения 2.3 X
     Качество трека 100.0 %
     CRC теста 87B0CBC7
     CRC копии 87B0CBC7
     Точное извлечение (достоверность 2)  [E4947615]  (AR v1)
     Копирование... OK
Трек  2
     Имя файла E:\Раздачи\NNMClub-eloychik ®\Various Artists - XXXL 10-Максимальный размер удовольствий [NNM-Club.to]\02.Валерия - Чёрно-белый цвет.wav
     Пиковый уровень 98.8 %
     Скорость извлечения 2.5 X
     Качество трека 100.0 %
     CRC теста BACB72D0
     CRC копии BACB72D0
     Точное извлечение (достоверность 2)  [83EBB314]  (AR v1)
     Копирование... OK
Трек  3
     Имя файла E:\Раздачи\NNMClub-eloychik ®\Various Artists - XXXL 10-Максимальный размер удовольствий [NNM-Club.to]\03.Hi-Fi - Седьмой лепесток.wav
     Пиковый уровень 98.8 %
     Скорость извлечения 2.7 X
     Качество трека 100.0 %
     CRC теста 9E93E4C8
     CRC копии 9E93E4C8
     Точное извлечение (достоверность 2)  [2D2F2C31]  (AR v1)
     Копирование... OK
Трек  4
     Имя файла E:\Раздачи\NNMClub-eloychik ®\Various Artists - XXXL 10-Максимальный размер удовольствий [NNM-Club.to]\04.Катя Лель - Муси-пуси.wav
     Пиковый уровень 98.8 %
     Скорость извлечения 2.7 X
     Качество трека 100.0 %
     CRC теста EC93BA36
     CRC копии EC93BA36
     Точное извлечение (достоверность 2)  [F2971A1D]  (AR v1)
     Копирование... OK
Трек  5
     Имя файла E:\Раздачи\NNMClub-eloychik ®\Various Artists - XXXL 10-Максимальный размер удовольствий [NNM-Club.to]\05.Авраам Руссо - Знаю.wav
     Пиковый уровень 98.8 %
     Скорость извлечения 2.7 X
     Качество трека 99.9 %
     CRC теста 2B080035
     CRC копии 2B080035
     Точное извлечение (достоверность 2)  [87C9567D]  (AR v1)
     Копирование... OK
Трек  6
     Имя файла E:\Раздачи\NNMClub-eloychik ®\Various Artists - XXXL 10-Максимальный размер удовольствий [NNM-Club.to]\06.Диана Гурцкая - Нежная.wav
     Пиковый уровень 98.8 %
     Скорость извлечения 3.0 X
     Качество трека 100.0 %
     CRC теста 7537CF8A
     CRC копии 7537CF8A
     Точное извлечение (достоверность 2)  [A67BFED4]  (AR v1)
     Копирование... OK
Трек  7
     Имя файла E:\Раздачи\NNMClub-eloychik ®\Various Artists - XXXL 10-Максимальный размер удовольствий [NNM-Club.to]\07.Глюк'Oza - Карина.wav
     Пиковый уровень 98.8 %
     Скорость извлечения 3.1 X
     Качество трека 100.0 %
     CRC теста 089AD1AB
     CRC копии 089AD1AB
     Точное извлечение (достоверность 2)  [C432F269]  (AR v1)
     Копирование... OK
Трек  8
     Имя файла E:\Раздачи\NNMClub-eloychik ®\Various Artists - XXXL 10-Максимальный размер удовольствий [NNM-Club.to]\08.Пьер Нарцисс - Целуй-целуй.wav
     Пиковый уровень 98.8 %
     Скорость извлечения 2.8 X
     Качество трека 99.9 %
     CRC теста D17855A9
     CRC копии D17855A9
     Точное извлечение (достоверность 2)  [A938049C]  (AR v1)
     Копирование... OK
Трек  9
     Имя файла E:\Раздачи\NNMClub-eloychik ®\Various Artists - XXXL 10-Максимальный размер удовольствий [NNM-Club.to]\09.Пропаганда - Яй-я.wav
     Пиковый уровень 98.8 %
     Скорость извлечения 3.4 X
     Качество трека 100.0 %
     CRC теста CB956136
     CRC копии CB956136
     Точное извлечение (достоверность 2)  [B3B7E9E0]  (AR v1)
     Копирование... OK
Трек 10
     Имя файла E:\Раздачи\NNMClub-eloychik ®\Various Artists - XXXL 10-Максимальный размер удовольствий [NNM-Club.to]\10.Алла Пугачева - Исчезнет грусть.wav
     Пиковый уровень 98.8 %
     Скорость извлечения 3.7 X
     Качество трека 100.0 %
     CRC теста 82817A11
     CRC копии 82817A11
     Точное извлечение (достоверность 2)  [7811D7BC]  (AR v1)
     Копирование... OK
Трек 11
     Имя файла E:\Раздачи\NNMClub-eloychik ®\Various Artists - XXXL 10-Максимальный размер удовольствий [NNM-Club.to]\11.Чай вдвоём - Он не разлюбит.wav
     Пиковый уровень 98.8 %
     Скорость извлечения 3.7 X
     Качество трека 100.0 %
     CRC теста 0FA7AA45
     CRC копии 0FA7AA45
     Точное извлечение (достоверность 2)  [BB472F7D]  (AR v1)
     Копирование... OK
Трек 12
     Имя файла E:\Раздачи\NNMClub-eloychik ®\Various Artists - XXXL 10-Максимальный размер удовольствий [NNM-Club.to]\12.Валерий Меладзе - Се-ля-ви.wav
     Пиковый уровень 98.8 %
     Скорость извлечения 3.8 X
     Качество трека 100.0 %
     CRC теста 38E963CA
     CRC копии 38E963CA
     Точное извлечение (достоверность 2)  [4DAF63F6]  (AR v1)
     Копирование... OK
Трек 13
     Имя файла E:\Раздачи\NNMClub-eloychik ®\Various Artists - XXXL 10-Максимальный размер удовольствий [NNM-Club.to]\13.Фабрика - Девушки фабричные.wav
     Пиковый уровень 98.8 %
     Скорость извлечения 4.1 X
     Качество трека 100.0 %
     CRC теста 61674D08
     CRC копии 61674D08
     Точное извлечение (достоверность 2)  [BF0744F0]  (AR v1)
     Копирование... OK
Трек 14
     Имя файла E:\Раздачи\NNMClub-eloychik ®\Various Artists - XXXL 10-Максимальный размер удовольствий [NNM-Club.to]\14.Иванушки Int. - Билетик в кино.wav
     Пиковый уровень 98.8 %
     Скорость извлечения 4.1 X
     Качество трека 100.0 %
     CRC теста 43E64A34
     CRC копии 43E64A34
     Точное извлечение (достоверность 2)  [68CF5B28]  (AR v1)
     Копирование... OK
Трек 15
     Имя файла E:\Раздачи\NNMClub-eloychik ®\Various Artists - XXXL 10-Максимальный размер удовольствий [NNM-Club.to]\15.Кристина Орбакайте - Перелётная птица.wav
     Пиковый уровень 97.7 %
     Скорость извлечения 3.6 X
     Качество трека 99.9 %
     CRC теста 01DF52AA
     CRC копии 01DF52AA
     Точное извлечение (достоверность 1)  [C6F9CB0B]  (AR v1)
     Копирование... OK
Трек 16
     Имя файла E:\Раздачи\NNMClub-eloychik ®\Various Artists - XXXL 10-Максимальный размер удовольствий [NNM-Club.to]\16.Мишель - У тебя нет сердца.wav
     Пиковый уровень 98.8 %
     Скорость извлечения 4.1 X
     Качество трека 100.0 %
     CRC теста D1298201
     CRC копии D1298201
     Точное извлечение (достоверность 1)  [D408C8F2]  (AR v1)
     Копирование... OK
Трек 17
     Имя файла E:\Раздачи\NNMClub-eloychik ®\Various Artists - XXXL 10-Максимальный размер удовольствий [NNM-Club.to]\17.Сергей Безруков и гр. Любэ - Берёзы.wav
     Пиковый уровень 98.8 %
     Скорость извлечения 4.3 X
     Качество трека 100.0 %
     CRC теста D130199B
     CRC копии D130199B
     Точное извлечение (достоверность 1)  [A96A51D3]  (AR v1)
     Копирование... OK
Трек 18
     Имя файла E:\Раздачи\NNMClub-eloychik ®\Various Artists - XXXL 10-Максимальный размер удовольствий [NNM-Club.to]\18.виа Гра - Биология.wav
     Длина предзазора  0:00:00.01
     Пиковый уровень 98.8 %
     Скорость извлечения 4.4 X
     Качество трека 100.0 %
     CRC теста 416163FA
     CRC копии 416163FA
     Точное извлечение (достоверность 1)  [485EA3BE]  (AR v1)
     Копирование... OK
Трек 19
     Имя файла E:\Раздачи\NNMClub-eloychik ®\Various Artists - XXXL 10-Максимальный размер удовольствий [NNM-Club.to]\19.Витас - Сердцебиение.wav
     Пиковый уровень 98.8 %
     Скорость извлечения 4.4 X
     Качество трека 100.0 %
     CRC теста AD8CABAB
     CRC копии AD8CABAB
     Точное извлечение (достоверность 1)  [A4AF2D33]  (AR v1)
     Копирование... OK
Трек 20
     Имя файла E:\Раздачи\NNMClub-eloychik ®\Various Artists - XXXL 10-Максимальный размер удовольствий [NNM-Club.to]\20.Дмитрий Маликов - Чёрный дрозд и белый аист.wav
     Пиковый уровень 98.8 %
     Скорость извлечения 4.9 X
     Качество трека 100.0 %
     CRC теста 0C7B8556
     CRC копии 0C7B8556
     Точное извлечение (достоверность 1)  [C917EC1C]  (AR v1)
     Копирование... OK
Трек 21
     Имя файла E:\Раздачи\NNMClub-eloychik ®\Various Artists - XXXL 10-Максимальный размер удовольствий [NNM-Club.to]\21.Reflex - Зима.wav
     Пиковый уровень 98.8 %
     Скорость извлечения 4.6 X
     Качество трека 100.0 %
     CRC теста 5C7B70A0
     CRC копии 5C7B70A0
     Точное извлечение (достоверность 1)  [DCE13468]  (AR v1)
     Копирование... OK
Трек 22
     Имя файла E:\Раздачи\NNMClub-eloychik ®\Various Artists - XXXL 10-Максимальный размер удовольствий [NNM-Club.to]\22.Наташа Королёва - Твой мир.wav
     Пиковый уровень 98.8 %
     Скорость извлечения 4.0 X
     Качество трека 99.9 %
     CRC теста 4D08AF95
     CRC копии 4D08AF95
     Точное извлечение (достоверность 1)  [77775C6B]  (AR v1)
     Копирование... OK
Трек 23
     Имя файла E:\Раздачи\NNMClub-eloychik ®\Various Artists - XXXL 10-Максимальный размер удовольствий [NNM-Club.to]\23.Наталья Ветлицкая - Пламя страсти.wav
     Пиковый уровень 98.8 %
     Скорость извлечения 4.7 X
     Качество трека 100.0 %
     CRC теста 94428BD0
     CRC копии 94428BD0
     Точное извлечение (достоверность 1)  [A9987A62]  (AR v1)
     Копирование... OK
Трек 24
     Имя файла E:\Раздачи\NNMClub-eloychik ®\Various Artists - XXXL 10-Максимальный размер удовольствий [NNM-Club.to]\24.Корни - Ты узнаешь её.wav
     Пиковый уровень 98.8 %
     Скорость извлечения 4.3 X
     Качество трека 99.9 %
     CRC теста DDBB75B6
     CRC копии DDBB75B6
     Точное извлечение (достоверность 1)  [DB584077]  (AR v1)
     Копирование... OK
Трек 25
     Имя файла E:\Раздачи\NNMClub-eloychik ®\Various Artists - XXXL 10-Максимальный размер удовольствий [NNM-Club.to]\25.Народный артист - Зажигай.wav
     Пиковый уровень 98.8 %
     Скорость извлечения 5.1 X
     Качество трека 100.0 %
     CRC теста A4766910
     CRC копии A4766910
     Точное извлечение (достоверность 1)  [9F37586A]  (AR v1)
     Копирование... OK
Трек 26
     Имя файла E:\Раздачи\NNMClub-eloychik ®\Various Artists - XXXL 10-Максимальный размер удовольствий [NNM-Club.to]\26.Гости из будущего - Новогодняя.wav
     Пиковый уровень 98.8 %
     Скорость извлечения 5.2 X
     Качество трека 100.0 %
     CRC теста BE10D705
     CRC копии BE10D705
     Точное извлечение (достоверность 1)  [EA00F451]  (AR v1)
     Копирование... OK
Все треки извлечены точно
Ошибок не произошло
Конец отчёта
==== Контрольная сумма отчёта 5ECF7E76EA778299A4CDB47629EDB158B233E3A7A2D56E499C02A03B775E6EC0 ====
Other forum [Profile] [PM]
Display posts from previous:    
Reply to topic

The time now is: Today 20:19

All times are GMT + 3 Hours



You cannot post new topics in this forum
You cannot reply to topics in this forum
You cannot edit your posts in this forum
You cannot delete your posts in this forum
You cannot vote in polls in this forum
You cannot attach files in this forum
You cannot download files in this forum