Today is a free download without charge Download

(Classic Rock) The Band - Greatest Hits - 2000, APE (image + .cue), lossless

Reply to topic
 
Author
Message

Soldat_5 ®

Longevity: 1 month 3 days

Posts: 48

Торрент-статистика

Post 13-Nov-2019 09:08

[Quote]

The Band - Greatest Hits
Страна: United States (U.S.A.
Жанр: Classic Rock
Год выпуска: 2000
Формат: APE (image + .cue)
Битрейт аудио: lossless
Продолжительность: 01:16:59
Трэклист:
The Weight
Tears Of Rage
Chest Fever
I Shall Be Released
Up On Cripple Creek
The Night They Drove Old Dixie Down
Rag Mama Rag
King Harvest (Has Surely Come)
The Shape I'm In
Stage Fright
Time To Kill
Life Is A Carnival
When I Paint My Masterpiece
Ain't Got No Home
It Makes No Difference
Ophelia
Acadian Driftwood
The Saga Of Pepote Rouge

Лог создания рипа

Exact Audio Copy V1.3 from 2. September 2016
Archivo Log de extracciones desde 8. Noviembre 2019, 18:34
The Band / Greatest Hits
Usar unidad : hp DVDRW GUD1N Adapter: 1 ID: 0
Modo de Lectura : : Seguro
Utilizar corriente precisa : Sí
Caché de audio por defecto : Sí
Utilizar los punteros C2 : No
Corrección de Desplazamiento de Lectura : : 6
Sobreleer tanto en Lead-In como en Lead-Out : No
Rellenar las muestras faltantes con silencios : Sí
Eliminar silencios inicial y final : No
Muestras nulas usadas en los calculos de CRC : Sí
Interfaz usada : Interfaz propio de Win32 para Windowns NT y 2000
Formato de Salida utilizado : : Compresor sin pérdida Monkey's Audio Lossless
Velocidad de bits seleccionada : Normal Lossless Compression
Calidad : Alta
Añadir ID3 tag : Sí
linea de comandos del compresor : C:\Program Files\Monkey's Audio x64\MAC.exe
TOC extraídos del CD
Pista | Inicio | Longitud | Inicio del sector | Fin del sector
------------------------------------------------------------------
1 | 0:00.00 | 4:35.30 | 0 | 20654
2 | 4:35.30 | 5:20.35 | 20655 | 44689
3 | 9:55.65 | 5:13.15 | 44690 | 68179
4 | 15:09.05 | 3:12.45 | 68180 | 82624
5 | 18:21.50 | 4:31.45 | 82625 | 102994
6 | 22:53.20 | 3:32.12 | 102995 | 118906
7 | 26:25.32 | 3:03.10 | 118907 | 132641
8 | 29:28.42 | 3:38.35 | 132642 | 149026
9 | 33:07.02 | 4:01.48 | 149027 | 167149
10 | 37:08.50 | 3:41.67 | 167150 | 183791
11 | 40:50.42 | 3:27.13 | 183792 | 199329
12 | 44:17.55 | 3:57.62 | 199330 | 217166
13 | 48:15.42 | 4:19.20 | 217167 | 236611
14 | 52:34.62 | 3:24.50 | 236612 | 251961
15 | 55:59.37 | 6:32.58 | 251962 | 281419
16 | 62:32.20 | 3:31.47 | 281420 | 297291
17 | 66:03.67 | 6:41.55 | 297292 | 327421
18 | 72:45.47 | 4:13.00 | 327422 | 346396
Gama de estados y errores
Seleccionar gama
Nombre de Archivo C:\Users\Carlos Cacao\Desktop\FOR SHARING\The Band - Greatest Hits.wav
Nivel Pico 98.8 %
Velocidad de extracción 2.2 X
Gama de Calidad 100.0 %
Copiar CRC 8C0DB29C
Copia OK
Sin Errores
Sumario AccurateRip
Pista 1 extraido con precisión (confidencia 106) [F58DC98A] (AR v2)
Pista 2 extraido con precisión (confidencia 106) [790C3782] (AR v2)
Pista 3 extraido con precisión (confidencia 105) [9ED9B3DB] (AR v2)
Pista 4 extraido con precisión (confidencia 105) [6CAEFFB7] (AR v2)
Pista 5 extraido con precisión (confidencia 106) [28EB03FC] (AR v2)
Pista 6 extraido con precisión (confidencia 105) [623ACCEE] (AR v2)
Pista 7 extraido con precisión (confidencia 103) [142DEB92] (AR v2)
Pista 8 extraido con precisión (confidencia 105) [8BCB375D] (AR v2)
Pista 9 extraido con precisión (confidencia 106) [B6A727FD] (AR v2)
Pista 10 extraido con precisión (confidencia 105) [CED27B61] (AR v2)
Pista 11 extraido con precisión (confidencia 105) [8D3B8CA5] (AR v2)
Pista 12 extraido con precisión (confidencia 106) [39B1A2B3] (AR v2)
Pista 13 extraido con precisión (confidencia 105) [8CD48057] (AR v2)
Pista 14 extraido con precisión (confidencia 102) [F3F63684] (AR v2)
Pista 15 extraido con precisión (confidencia 102) [384C253D] (AR v2)
Pista 16 extraido con precisión (confidencia 105) [7506F4FC] (AR v2)
Pista 17 extraido con precisión (confidencia 105) [9EDC2A65] (AR v2)
Pista 18 extraido con precisión (confidencia 102) [505B33C1] (AR v2)
Todas las pistas extraidas con precisión
Final del Informe
---- CUETools DB Plugin V2.1.6
[CTDB TOCID: ZUq2p1lNQrEVMnqrj0iq38tHy3M-] found
Submit result: already submitted
Track | CTDB Status
1 | (221/417) Accurately ripped
2 | (221/417) Accurately ripped
3 | (220/417) Accurately ripped
4 | (221/417) Accurately ripped
5 | (220/417) Accurately ripped
6 | (221/417) Accurately ripped
7 | (221/417) Accurately ripped
8 | (221/417) Accurately ripped
9 | (220/417) Accurately ripped
10 | (221/417) Accurately ripped
11 | (220/417) Accurately ripped
12 | (220/417) Accurately ripped
13 | (220/417) Accurately ripped
14 | (220/417) Accurately ripped
15 | (219/417) Accurately ripped
16 | (220/417) Accurately ripped
17 | (218/417) Accurately ripped
18 | (210/417) Accurately ripped
==== Log checksum 50A38E762487EA2FB678DFAE2CBA741D6BD5A787180C322E2BFBBEA76B1186E3 ====

Содержание индексной карты (.CUE)

REM GENRE "Classic Rock"
REM DATE 2000
REM DISCID 25120A12
REM COMMENT "ExactAudioCopy v1.3"
PERFORMER "The Band"
TITLE "Greatest Hits"
REM COMPOSER ""
FILE "The Band - Greatest Hits.ape" WAVE
TRACK 01 AUDIO
TITLE "The Weight"
PERFORMER "The Band"
REM COMPOSER ""
INDEX 01 00:00:00
TRACK 02 AUDIO
TITLE "Tears Of Rage"
PERFORMER "The Band"
REM COMPOSER ""
INDEX 00 04:33:47
INDEX 01 04:35:30
TRACK 03 AUDIO
TITLE "Chest Fever"
PERFORMER "The Band"
REM COMPOSER ""
INDEX 01 09:55:65
TRACK 04 AUDIO
TITLE "I Shall Be Released"
PERFORMER "The Band"
REM COMPOSER ""
INDEX 00 15:07:50
INDEX 01 15:09:05
TRACK 05 AUDIO
TITLE "Up On Cripple Creek"
PERFORMER "The Band"
REM COMPOSER ""
INDEX 01 18:21:50
TRACK 06 AUDIO
TITLE "The Night They Drove Old Dixie Down"
PERFORMER "The Band"
REM COMPOSER ""
INDEX 01 22:53:20
TRACK 07 AUDIO
TITLE "Rag Mama Rag"
PERFORMER "The Band"
REM COMPOSER ""
INDEX 01 26:25:32
TRACK 08 AUDIO
TITLE "King Harvest (Has Surely Come)"
PERFORMER "The Band"
REM COMPOSER ""
INDEX 01 29:28:42
TRACK 09 AUDIO
TITLE "The Shape I'm In"
PERFORMER "The Band"
REM COMPOSER ""
INDEX 01 33:07:02
TRACK 10 AUDIO
TITLE "Stage Fright"
PERFORMER "The Band"
REM COMPOSER ""
INDEX 00 37:07:42
INDEX 01 37:08:50
TRACK 11 AUDIO
TITLE "Time To Kill"
PERFORMER "The Band"
REM COMPOSER ""
INDEX 01 40:50:42
TRACK 12 AUDIO
TITLE "Life Is A Carnival"
PERFORMER "The Band"
REM COMPOSER ""
INDEX 01 44:17:55
TRACK 13 AUDIO
TITLE "When I Paint My Masterpiece"
PERFORMER "The Band"
REM COMPOSER ""
INDEX 01 48:15:42
TRACK 14 AUDIO
TITLE "Ain't Got No Home"
PERFORMER "The Band"
REM COMPOSER ""
INDEX 00 52:33:37
INDEX 01 52:34:62
TRACK 15 AUDIO
TITLE "It Makes No Difference"
PERFORMER "The Band"
REM COMPOSER ""
INDEX 00 55:58:12
INDEX 01 55:59:37
TRACK 16 AUDIO
TITLE "Ophelia"
PERFORMER "The Band"
REM COMPOSER ""
INDEX 01 62:32:20
TRACK 17 AUDIO
TITLE "Acadian Driftwood"
PERFORMER "The Band"
REM COMPOSER ""
INDEX 00 66:02:02
INDEX 01 66:03:67
TRACK 18 AUDIO
TITLE "The Saga Of Pepote Rouge"
PERFORMER "The Band"
REM COMPOSER ""
INDEX 01 72:45:47
Other forum [Profile] [PM]

1958bis

Longevity: 5 years 2 months

Posts: 10

Торрент-статистика

Post 14-Nov-2019 19:54 (after 1 day 10 hours)

[Quote]

Зачем регистрировать, если не собираетесь раздавать?
За 2 дня раздача - 00,00!!!
"Полного источника не было: Никогда"
Other forum [Profile] [PM]

Dracula

Longevity: 6 years 1 month

Posts: 10712

Торрент-статистика

Post 01-Dec-2019 14:08 (after 16 days)

Топик был перенесен из форума Rock в форум Архив


Soldat_5
 
Similar theme
Forum Topic Author Torrent Replies Last Post
./templates/default/images/folder_dl.gif Rock (Classic Rock) The Beatles Anthology \\ Антология Битлз (6 CD) - 1995, APE (image+.cue), lossless Omen
0 | 1

0 | 1970

1

2013-07-15 00:08
Omen Latest
./templates/default/images/folder_dl.gif Rock (Classic Rock) Huxster - Huxster - 2015, MP3, 320 kbps Omen
1 | 0

0 | 1085

3

2015-07-12 18:15
Omen Latest
./templates/default/images/folder_dl.gif Rock (Classic Rock / Pub Rock) [CD] Cold Chisel - The Perfect Crime (Deluxe Edition) - 2015, FLAC (tracks+.cue), lossless Omen
1 | 0

0 | 1664

6

2015-10-03 00:02
Omen Latest
./templates/default/images/folder_dl.gif Rock (Classic Rock, Hard Rock, Progressive Rock) [WEB] Martin Turner & Friends (ex-Wishbone Ash) - The Garden Party (Live!) - 2014, FLAC (tracks), lossless Omen
1 | 0

0 | 1354

10

2015-12-01 00:03
Omen Latest
./templates/default/images/folder_dl.gif Blues (Classic Rock) Coco Montoya / Gotta Mind To Travel (1994 UK Silvertone 74321 18886 2) - 2019, FLAC (image + .cue), lossless Soldat_5
1 | 0

0 | 280

0

2019-11-19 15:47
Soldat_5 Latest
Display posts from previous:    
Reply to topic

The time now is: Today 19:58

All times are GMT + 3 Hours



You cannot post new topics in this forum
You cannot reply to topics in this forum
You cannot edit your posts in this forum
You cannot delete your posts in this forum
You cannot vote in polls in this forum
You cannot attach files in this forum
You cannot download files in this forum