Today is a free download without charge Download

(Hard Rock) UFO / The Best Of The Rest - 1988, FLAC (tracks), lossless

Reply to topic
 
Author
Message

Soldat_5 ®

Longevity: 3 months 8 days

Posts: 102

Торрент-статистика

Post 10-Nov-2019 13:57

[Quote]

UFO / The Best Of The Rest
Страна: USA
Жанр: Hard Rock
Год выпуска: 1988
Формат: FLAC (tracks+cue)
Битрейт аудио: lossless
Продолжительность: 01:06:32
Трэклист:
01. The Writer
02. Mystery Train
03. Makin Moves
04. Night Run
05. You And Me
06. Alpha Centauri
07. Lettin' Go
08. Something Else
09. Blinded By A Lie
10. Diesel In The Dust
11. Chains Chains
12. This Time
13. Back Into My Life
14. The Way The Wind Blows
15. Money Money
16. Let It Rain
17. A Fool For Love

Лог создания рипа

Exact Audio Copy V1.1 from 23. June 2015
EAC extraction logfile from 24. June 2017, 21:05
UFO / The Best Of The Rest
Used drive : HL-DT-STDVDRAM GH22NS40 Adapter: 1 ID: 0
Read mode : Secure
Utilize accurate stream : Yes
Defeat audio cache : Yes
Make use of C2 pointers : No
Read offset correction : 667
Overread into Lead-In and Lead-Out : No
Fill up missing offset samples with silence : Yes
Delete leading and trailing silent blocks : No
Null samples used in CRC calculations : Yes
Used interface : Native Win32 interface for Win NT & 2000
Gap handling : Appended to previous track
Used output format : User Defined Encoder
Selected bitrate : 1024 kBit/s
Quality : High
Add ID3 tag : No
Command line compressor : C:\Program Files\Exact Audio Copy\Flac\flac.exe
Additional command line options : -8 -V -T "ARTIST=%artist%" -T "TITLE=%title%" -T "ALBUM=%albumtitle%" -T "DATE=%year%" -T "TRACKNUMBER=%tracknr%" -T "GENRE=%genre%" -T "COMMENT=%comment%" %source% -o %dest%
TOC of the extracted CD
Track | Start | Length | Start sector | End sector
---------------------------------------------------------
1 | 0:00.00 | 4:09.70 | 0 | 18744
2 | 4:09.70 | 3:54.52 | 18745 | 36346
3 | 8:04.47 | 4:44.55 | 36347 | 57701
4 | 12:49.27 | 4:22.53 | 57702 | 77404
5 | 17:12.05 | 3:18.50 | 77405 | 92304
6 | 20:30.55 | 1:56.12 | 92305 | 101016
7 | 22:26.67 | 4:01.25 | 101017 | 119116
8 | 26:28.17 | 3:19.28 | 119117 | 134069
9 | 29:47.45 | 4:01.57 | 134070 | 152201
10 | 33:49.27 | 4:21.30 | 152202 | 171806
11 | 38:10.57 | 3:25.40 | 171807 | 187221
12 | 41:36.22 | 4:37.55 | 187222 | 208051
13 | 46:14.02 | 4:53.30 | 208052 | 230056
14 | 51:07.32 | 4:13.10 | 230057 | 249041
15 | 55:20.42 | 3:29.20 | 249042 | 264736
16 | 58:49.62 | 4:00.28 | 264737 | 282764
17 | 62:50.15 | 3:54.22 | 282765 | 300336
Track 1
Filename I:\Rips\01 - The Writer.wav
Pre-gap length 0:00:02.00
Peak level 97.5 %
Extraction speed 3.5 X
Track quality 100.0 %
Test CRC C960921F
Copy CRC C960921F
Accurately ripped (confidence 10) [33809B71] (AR v2)
Copy OK
Track 2
Filename I:\Rips\02 - Mystery Train.wav
Pre-gap length 0:00:00.63
Peak level 99.8 %
Extraction speed 3.2 X
Track quality 99.9 %
Test CRC 48041CCF
Copy CRC 48041CCF
Accurately ripped (confidence 10) [1CE870B3] (AR v2)
Copy OK
Track 3
Filename I:\Rips\03 - Makin Moves.wav
Pre-gap length 0:00:00.60
Peak level 82.9 %
Extraction speed 4.3 X
Track quality 100.0 %
Test CRC AF186031
Copy CRC AF186031
Accurately ripped (confidence 10) [4E6A6E99] (AR v2)
Copy OK
Track 4
Filename I:\Rips\04 - Night Run.wav
Pre-gap length 0:00:00.52
Peak level 89.3 %
Extraction speed 4.7 X
Track quality 100.0 %
Test CRC 22B66E8E
Copy CRC 22B66E8E
Accurately ripped (confidence 9) [E319AA06] (AR v2)
Copy OK
Track 5
Filename I:\Rips\05 - You And Me.wav
Pre-gap length 0:00:00.70
Peak level 68.9 %
Extraction speed 4.7 X
Track quality 100.0 %
Test CRC 6B0C57B6
Copy CRC 6B0C57B6
Accurately ripped (confidence 9) [0CA0DE19] (AR v2)
Copy OK
Track 6
Filename I:\Rips\06 - Alpha Centauri.wav
Pre-gap length 0:00:00.70
Peak level 61.5 %
Extraction speed 3.0 X
Track quality 99.9 %
Test CRC 4BF4C778
Copy CRC 4BF4C778
Accurately ripped (confidence 10) [24275BD7] (AR v2)
Copy OK
Track 7
Filename I:\Rips\07 - Lettin' Go.wav
Peak level 93.3 %
Extraction speed 4.2 X
Track quality 99.9 %
Test CRC DB2F98F8
Copy CRC DB2F98F8
Accurately ripped (confidence 9) [E3CF62CE] (AR v2)
Copy OK
Track 8
Filename I:\Rips\08 - Something Else.wav
Pre-gap length 0:00:00.40
Peak level 90.2 %
Extraction speed 5.3 X
Track quality 100.0 %
Test CRC C6A1AC08
Copy CRC C6A1AC08
Accurately ripped (confidence 9) [AE9A43DE] (AR v2)
Copy OK
Track 9
Filename I:\Rips\09 - Blinded By A Lie.wav
Pre-gap length 0:00:01.00
Peak level 94.3 %
Extraction speed 5.6 X
Track quality 100.0 %
Test CRC 6B0F7182
Copy CRC 6B0F7182
Accurately ripped (confidence 9) [73E943BF] (AR v2)
Copy OK
Track 10
Filename I:\Rips\10 - Diesel In The Dust.wav
Peak level 89.4 %
Extraction speed 5.8 X
Track quality 100.0 %
Test CRC 4585BE6E
Copy CRC 4585BE6E
Accurately ripped (confidence 8) [EAD822F5] (AR v2)
Copy OK
Track 11
Filename I:\Rips\11 - Chains Chains.wav
Pre-gap length 0:00:00.65
Peak level 90.1 %
Extraction speed 4.6 X
Track quality 99.9 %
Test CRC 5A102B1F
Copy CRC 5A102B1F
Accurately ripped (confidence 8) [69E8CFC6] (AR v2)
Copy OK
Track 12
Filename I:\Rips\12 - This Time.wav
Pre-gap length 0:00:00.62
Peak level 86.4 %
Extraction speed 6.1 X
Track quality 100.0 %
Test CRC 63F7F2D3
Copy CRC 63F7F2D3
Accurately ripped (confidence 8) [B6BD5104] (AR v2)
Copy OK
Track 13
Filename I:\Rips\13 - Back Into My Life.wav
Pre-gap length 0:00:00.72
Peak level 84.5 %
Extraction speed 6.3 X
Track quality 100.0 %
Test CRC 93FF3EFC
Copy CRC 93FF3EFC
Accurately ripped (confidence 8) [D68B2566] (AR v2)
Copy OK
Track 14
Filename I:\Rips\14 - The Way The Wind Blows.wav
Pre-gap length 0:00:00.60
Peak level 89.2 %
Extraction speed 6.6 X
Track quality 100.0 %
Test CRC 3BF1015C
Copy CRC 3BF1015C
Accurately ripped (confidence 8) [0220C1BC] (AR v2)
Copy OK
Track 15
Filename I:\Rips\15 - Money, Money.wav
Pre-gap length 0:00:00.67
Peak level 89.1 %
Extraction speed 6.4 X
Track quality 100.0 %
Test CRC 76481410
Copy CRC 76481410
Accurately ripped (confidence 8) [5D77C771] (AR v2)
Copy OK
Track 16
Filename I:\Rips\16 - Let It Rain.wav
Pre-gap length 0:00:01.22
Peak level 87.8 %
Extraction speed 5.5 X
Track quality 99.9 %
Test CRC C2B36A80
Copy CRC C2B36A80
Accurately ripped (confidence 8) [14299A28] (AR v2)
Copy OK
Track 17
Filename I:\Rips\17 - A Fool For Love.wav
Pre-gap length 0:00:00.68
Peak level 84.8 %
Extraction speed 7.0 X
Track quality 100.0 %
Test CRC 51350057
Copy CRC 51350057
Accurately ripped (confidence 8) [8370C391] (AR v2)
Copy OK
All tracks accurately ripped
No errors occurred
End of status report
---- CUETools DB Plugin V2.1.6
[CTDB TOCID: 13KSIogcYAka_SKR9VncZeqkwP4-] found
Submit result: already submitted
Track | CTDB Status
1 | (18/18) Accurately ripped
2 | (18/18) Accurately ripped
3 | (18/18) Accurately ripped
4 | (17/18) Accurately ripped
5 | (17/18) Accurately ripped
6 | (17/18) Accurately ripped
7 | (17/18) Accurately ripped
8 | (17/18) Accurately ripped
9 | (17/18) Accurately ripped
10 | (17/18) Accurately ripped
11 | (17/18) Accurately ripped
12 | (17/18) Accurately ripped
13 | (17/18) Accurately ripped
14 | (17/18) Accurately ripped
15 | (17/18) Accurately ripped
16 | (17/18) Accurately ripped
17 | (17/18) Accurately ripped
==== Log checksum 180DEC735B5BE4A8473E500D11C9E0CCCDB554DE14F99C3BF2012A890020746E ====

Содержание индексной карты (.CUE)

REM GENRE "Hard Rock"
REM DATE 1988
REM DISCID F00FA411
REM COMMENT "ExactAudioCopy v1.1"
PERFORMER "UFO"
TITLE "The Best Of The Rest"
FILE "01 - The Writer.wav" WAVE
TRACK 01 AUDIO
TITLE "The Writer"
PERFORMER "UFO"
INDEX 01 00:00:00
TRACK 02 AUDIO
TITLE "Mystery Train"
PERFORMER "UFO"
INDEX 00 04:09:07
FILE "02 - Mystery Train.wav" WAVE
INDEX 01 00:00:00
TRACK 03 AUDIO
TITLE "Makin Moves"
PERFORMER "UFO"
INDEX 00 03:53:67
FILE "03 - Makin Moves.wav" WAVE
INDEX 01 00:00:00
TRACK 04 AUDIO
TITLE "Night Run"
PERFORMER "UFO"
INDEX 00 04:44:03
FILE "04 - Night Run.wav" WAVE
INDEX 01 00:00:00
TRACK 05 AUDIO
TITLE "You And Me"
PERFORMER "UFO"
INDEX 00 04:21:58
FILE "05 - You And Me.wav" WAVE
INDEX 01 00:00:00
TRACK 06 AUDIO
TITLE "Alpha Centauri"
PERFORMER "UFO"
INDEX 00 03:17:55
FILE "06 - Alpha Centauri.wav" WAVE
INDEX 01 00:00:00
FILE "07 - Lettin' Go.wav" WAVE
TRACK 07 AUDIO
TITLE "Lettin' Go"
PERFORMER "UFO"
INDEX 01 00:00:00
TRACK 08 AUDIO
TITLE "Something Else"
PERFORMER "UFO"
INDEX 00 04:00:60
FILE "08 - Something Else.wav" WAVE
INDEX 01 00:00:00
TRACK 09 AUDIO
TITLE "Blinded By A Lie"
PERFORMER "UFO"
INDEX 00 03:18:28
FILE "09 - Blinded By A Lie.wav" WAVE
INDEX 01 00:00:00
FILE "10 - Diesel In The Dust.wav" WAVE
TRACK 10 AUDIO
TITLE "Diesel In The Dust"
PERFORMER "UFO"
INDEX 01 00:00:00
TRACK 11 AUDIO
TITLE "Chains Chains"
PERFORMER "UFO"
INDEX 00 04:20:40
FILE "11 - Chains Chains.wav" WAVE
INDEX 01 00:00:00
TRACK 12 AUDIO
TITLE "This Time"
PERFORMER "UFO"
INDEX 00 03:24:53
FILE "12 - This Time.wav" WAVE
INDEX 01 00:00:00
TRACK 13 AUDIO
TITLE "Back Into My Life"
PERFORMER "UFO"
INDEX 00 04:36:58
FILE "13 - Back Into My Life.wav" WAVE
INDEX 01 00:00:00
TRACK 14 AUDIO
TITLE "The Way The Wind Blows"
PERFORMER "UFO"
INDEX 00 04:52:45
FILE "14 - The Way The Wind Blows.wav" WAVE
INDEX 01 00:00:00
TRACK 15 AUDIO
TITLE "Money, Money"
PERFORMER "UFO"
INDEX 00 04:12:18
FILE "15 - Money, Money.wav" WAVE
INDEX 01 00:00:00
TRACK 16 AUDIO
TITLE "Let It Rain"
PERFORMER "UFO"
INDEX 00 03:27:73
FILE "16 - Let It Rain.wav" WAVE
INDEX 01 00:00:00
TRACK 17 AUDIO
TITLE "A Fool For Love"
PERFORMER "UFO"
INDEX 00 03:59:35
FILE "17 - A Fool For Love.wav" WAVE
INDEX 01 00:00:00

AccurateRip

[CUETools log; Date: 10.11.2019 11:19:38; Version: 2.1.5]
[CTDB TOCID: 13KSIogcYAka_SKR9VncZeqkwP4-] found.
Track | CTDB Status
1 | (24/24) Accurately ripped
2 | (24/24) Accurately ripped
3 | (24/24) Accurately ripped
4 | (23/24) Accurately ripped
5 | (23/24) Accurately ripped
6 | (23/24) Accurately ripped
7 | (23/24) Accurately ripped
8 | (23/24) Accurately ripped
9 | (23/24) Accurately ripped
10 | (23/24) Accurately ripped
11 | (23/24) Accurately ripped
12 | (23/24) Accurately ripped
13 | (23/24) Accurately ripped
14 | (23/24) Accurately ripped
15 | (23/24) Accurately ripped
16 | (23/24) Accurately ripped
17 | (23/24) Accurately ripped
[AccurateRip ID: 0028f031-02061680-f00fa411] found.
Track [ CRC | V2 ] Status
01 [f75e8e53|33809b71] (03+12/22) Accurately ripped
02 [42cd8f86|1ce870b3] (04+12/23) Accurately ripped
03 [48e2c49e|4e6a6e99] (03+12/22) Accurately ripped
04 [d7c9bba3|e319aa06] (03+11/21) Accurately ripped
05 [2f254e3b|0ca0de19] (04+11/22) Accurately ripped
06 [45ced153|24275bd7] (04+12/23) Accurately ripped
07 [51e22019|e3cf62ce] (03+11/21) Accurately ripped
08 [710bb54c|ae9a43de] (03+11/21) Accurately ripped
09 [05c0f57e|73e943bf] (03+11/21) Accurately ripped
10 [356aac1a|ead822f5] (04+10/21) Accurately ripped
11 [f759db44|69e8cfc6] (04+10/21) Accurately ripped
12 [6f90baf6|b6bd5104] (04+10/21) Accurately ripped
13 [f7fe9d40|d68b2566] (03+10/20) Accurately ripped
14 [3c0fd56c|0220c1bc] (03+10/20) Accurately ripped
15 [cc1ced9c|5d77c771] (02+10/19) Accurately ripped
16 [8239d32e|14299a28] (02+10/19) Accurately ripped
17 [d2bf6a83|8370c391] (02+10/19) Accurately ripped
Offsetted by -279:
01 [6ffd17da] (03/22) Accurately ripped
02 [6a00fed3] (03/23) Accurately ripped
03 [ba90c813] (03/22) Accurately ripped
04 [d43489ad] (03/21) Accurately ripped
05 [a05105e7] (03/22) Accurately ripped
06 [0381160b] (03/23) Accurately ripped
07 [e34b1392] (03/21) Accurately ripped
08 [8168df6b] (03/21) Accurately ripped
09 [47013823] (03/21) Accurately ripped
10 [eed709b0] (03/21) Accurately ripped
11 [6a39cd94] (03/21) Accurately ripped
12 [545a15c2] (03/21) Accurately ripped
13 [efccbd79] (03/20) Accurately ripped
14 [53c04cad] (03/20) Accurately ripped
15 [a7f5384e] (03/19) Accurately ripped
16 [c93e7dbb] (03/19) Accurately ripped
17 [fda9ed65] (03/19) Accurately ripped
Offsetted by -38:
01 [5e0c76d9] (00/22) No match (V2 was not tested)
02 [33f4ae48] (00/23) No match (V2 was not tested)
03 [a1c62af0] (00/22) No match (V2 was not tested)
04 [58ad2787] (00/21) No match (V2 was not tested)
05 [44fb8bf3] (00/22) No match (V2 was not tested)
06 [8191e160] (00/23) No match (V2 was not tested)
07 [f6949696] (00/21) No match (V2 was not tested)
08 [bcadf5c2] (00/21) No match (V2 was not tested)
09 [4f2b27f0] (00/21) No match (V2 was not tested)
10 [9c41f0f6] (00/21) No match (V2 was not tested)
11 [6bedce64] (00/21) No match (V2 was not tested)
12 [dbcd2fee] (00/21) No match (V2 was not tested)
13 [e747a63a] (00/20) No match (V2 was not tested)
14 [28596ab6] (00/20) No match (V2 was not tested)
15 [c9061610] (00/19) No match (V2 was not tested)
16 [512cb270] (00/19) No match (V2 was not tested)
17 [572b410b] (00/19) No match (V2 was not tested)
Track Peak [ CRC32 ] [W/O NULL] [ LOG ]
-- 99,8 [73256BCE] [E9184471]
01 97,5 [C960921F] [C3E86B65] CRC32
02 99,8 [48041CCF] [2840CC18] CRC32
03 82,9 [AF186031] [0E4905A5] CRC32
04 89,3 [22B66E8E] [DEDC7588] CRC32
05 68,9 [6B0C57B6] [39108352] CRC32
06 61,5 [4BF4C778] [A81C6217] CRC32
07 93,3 [DB2F98F8] [498F4FA4] CRC32
08 90,2 [C6A1AC08] [2A086605] CRC32
09 94,3 [6B0F7182] [0E21189A] CRC32
10 89,4 [4585BE6E] [EF5A219B] CRC32
11 90,1 [5A102B1F] [7732D420] CRC32
12 86,4 [63F7F2D3] [854D713F] CRC32
13 84,5 [93FF3EFC] [E205AE8B] CRC32
14 89,2 [3BF1015C] [277C9EFF] CRC32
15 89,1 [76481410] [6C28A058] CRC32
16 87,8 [C2B36A80] [1134DE25] CRC32
17 84,8 [51350057] [878CDB3C] CRC32
Other forum [Profile] [PM]
Similar theme
Forum Topic Author Torrent Replies Last Post
./templates/default/images/folder_dl.gif Rock (Hard Rock) Nazareth - Love Hurts: The Rock Ballads - 2002, FLAC (image+.cue) , lossless Nugeiro
0 | 1

0 | 1486

5

2011-07-20 15:03
Nugeiro Latest
./templates/default/images/folder_dl.gif Rock (Hard Rock/Heavy) One Bad Son - Black Buffalo - 2014, MP3, 320 kbps Omen
1 | 0

0 | 629

15

2014-10-02 23:00
Omen Latest
./templates/default/images/folder_dl.gif Rock (Hard Rock) [WEB] Hollywood Undead - Swan Songs [Collector’s Edition] - 2008, FLAC (tracks), lossless Omen
0 | 1

0 | 2606

0

2015-04-13 18:14
Omen Latest
./templates/default/images/folder_dl.gif Metal (Hard Rock / Heavy / Gothic Metal (Female Vocal)) Tang - Blood & Sand - 2015, MP3, 320 kbps Omen
0 | 1

0 | 822

4

2015-04-30 21:14
Omen Latest
./templates/default/images/folder_dl.gif Rock (Hard Rock / Metal (Female Vocals)) 4Bitten - Rewind & Erase - 2015, MP3, 320 kbps Omen
0 | 1

0 | 831

8

2015-06-28 18:31
Omen Latest
./templates/default/images/folder_dl.gif Rock (Hard Rock) Taylen Storm - Taylen Storm - 2015, MP3, 320 kbps Omen
1 | 0

0 | 1208

8

2015-07-22 18:00
Omen Latest
./templates/default/images/folder_dl.gif Rock (Hard Rock) Nevada Beach - Read It On The Wall - 2016, MP3, 320 kbps Omen
0 | 1

0 | 854

5

2016-01-14 00:03
Omen Latest
./templates/default/images/folder_dl.gif Rock (Hard Rock / Stoner) Hurriah - Cosmosotic - 2016, MP3, 320 kbps Omen
1 | 0

0 | 783

1

2016-01-19 00:00
Omen Latest
Display posts from previous:    
Reply to topic

The time now is: Today 03:55

All times are GMT + 3 Hours



You cannot post new topics in this forum
You cannot reply to topics in this forum
You cannot edit your posts in this forum
You cannot delete your posts in this forum
You cannot vote in polls in this forum
You cannot attach files in this forum
You cannot download files in this forum