Today is a free download without charge Download

На моей коже / Sulla mia pelle / On My Skin (2018) WEB-DL [H.264/1080p-LQ] [MVO]

Reply to topic
DL-List and Torrent activity
Size:  3.54 GB   |    Registered:  4 months 8 days   |    Completed:  0 times

Seeder not seen: 3 months 27 days

 
 
 
 
 
Author
Message

Clavik ®

Gender:

Longevity: 6 years 4 months

Posts: 2450

Location: Украина

Торрент-статистика

Post 13-Oct-2019 00:25

[Quote]

На моей коже / Sulla mia pelle / On My Skin (2018) WEB-DL [H.264/1080p-LQ] - Производство: Италия, Cinemaundici,Lucky Red,Ministero dei Beni e delle Attività Culturali e del Turismo
Жанр: Драма, биография
Режиссер: Алессио Кремонини
Актеры: Алессандро Борги, Массимилиано Тортора, Мильвия Марильяно, Жазмин Тринка, Elisa Casavecchia, Aurora Casavecchia, Мауро Конте, Вальтер Нестола, Давид Петруччи, Paolo D Bovani
Описание:
31-летний наркоман Стефано Кукки оказывается арестованным карабинерами за хранение и распространение наркотиков. После задержания он подвергается избиению служителями закона и попадает в больницу. Постепенно здоровье Кукки ухудшается, и через неделю его организм не выдерживает. За одну неделю жизнь его семьи меняется навсегда.

Релиз от: mike7025
Продолжительность: 01:40:18
Качество видео: WEB-DL
Перевод: Многоголосый профессиональный
Субтитры: Русские (forced, full), английские (forced, full), испанские, французские и другие
Видео: AVC/H.264, 1920x1080, ~4220 Кbps
Аудио 1: AC3, 2 ch, 192 Kbps - Русский MVO (MVO, HDRezka studio)
Аудио 2: Е-AC3, 6 ch, 640 Kbps - Английский

MediaInfo:

General
Unique ID : 325857119113829207971953621803957906543 (0xF525CC5F4F3E259724FFF477DBA66C6F)
Complete name : G:\On.My.Skin.2018.NF.WEB-DL.1080p.mkv
Format : Matroska
Format version : Version 4 / Version 2
File size : 3.54 GiB
Duration : 1 h 40 min
Overall bit rate mode : Variable
Overall bit rate : 5 046 kb/s
Encoded date : UTC 2019-07-25 11:36:53
Writing application : mkvmerge v20.0.0 ('I Am The Sun') 64-bit
Writing library : libebml v1.3.5 + libmatroska v1.4.8
Video
ID : 1
Format : AVC
Format/Info : Advanced Video Codec
Format profile : Main@L4
Format settings : CABAC / 3 Ref Frames
Format settings, CABAC : Yes
Format settings, RefFrames : 3 frames
Codec ID : V_MPEG4/ISO/AVC
Duration : 1 h 40 min
Bit rate mode : Variable
Bit rate : 4 220 kb/s
Maximum bit rate : 6 330 kb/s
Width : 1 920 pixels
Height : 1 080 pixels
Display aspect ratio : 16:9
Frame rate mode : Constant
Frame rate : 24.000 FPS
Color space : YUV
Chroma subsampling : 4:2:0
Bit depth : 8 bits
Scan type : Progressive
Bits/(Pixel*Frame) : 0.085
Stream size : 2.95 GiB (83%)
Writing library : x264 core 148 r2715 7e75228
Encoding settings : cabac=1 / ref=3 / deblock=1:0:0 / analyse=0x1:0x111 / me=umh / subme=10 / psy=1 / psy_rd=1.00:0.00 / mixed_ref=1 / me_range=24 / chroma_me=1 / trellis=2 / 8x8dct=0 / cqm=0 / deadzone=21,11 / fast_pskip=1 / chroma_qp_offset=-2 / threads=8 / lookahead_threads=1 / sliced_threads=0 / nr=0 / decimate=1 / interlaced=0 / bluray_compat=0 / stitchable=1 / constrained_intra=0 / bframes=2 / b_pyramid=0 / b_adapt=2 / b_bias=0 / direct=3 / weightb=1 / open_gop=0 / weightp=2 / keyint=48 / keyint_min=25 / scenecut=0 / intra_refresh=0 / rc_lookahead=48 / rc=2pass / mbtree=1 / bitrate=4220 / ratetol=1.0 / qcomp=0.50 / qpmin=6 / qpmax=51 / qpstep=4 / cplxblur=20.0 / qblur=0.5 / vbv_maxrate=6330 / vbv_bufsize=8440 / nal_hrd=vbr / filler=0 / ip_ratio=1.40 / aq=1:1.00
Language : English
Default : Yes
Forced : No
Audio #1
ID : 2
Format : AC-3
Format/Info : Audio Coding 3
Codec ID : A_AC3
Duration : 1 h 40 min
Bit rate mode : Constant
Bit rate : 192 kb/s
Channel(s) : 2 channels
Channel positions : Front: L R
Sampling rate : 48.0 kHz
Frame rate : 31.250 FPS (1536 SPF)
Bit depth : 16 bits
Compression mode : Lossy
Stream size : 138 MiB (4%)
Title : MVO HDRezka Studio
Language : Russian
Service kind : Complete Main
Default : Yes
Forced : No
Audio #2
ID : 3
Format : E-AC-3
Format/Info : Enhanced Audio Coding 3
Codec ID : A_EAC3
Duration : 1 h 40 min
Bit rate mode : Constant
Bit rate : 640 kb/s
Channel(s) : 6 channels
Channel positions : Front: L C R, Side: L R, LFE
Sampling rate : 48.0 kHz
Frame rate : 187.500 FPS (256 SPF)
Compression mode : Lossy
Stream size : 459 MiB (13%)
Language : English
Service kind : Complete Main
Default : No
Forced : No
Text #1
ID : 4
Format : UTF-8
Codec ID : S_TEXT/UTF8
Codec ID/Info : UTF-8 Plain Text
Duration : 1 h 30 min
Bit rate : 1 b/s
Count of elements : 21
Stream size : 858 Bytes (0%)
Title : forced
Language : Russian
Default : Yes
Forced : Yes
Text #2
ID : 5
Format : UTF-8
Codec ID : S_TEXT/UTF8
Codec ID/Info : UTF-8 Plain Text
Duration : 1 h 36 min
Bit rate : 74 b/s
Count of elements : 1056
Stream size : 52.7 KiB (0%)
Language : Russian
Default : No
Forced : No
Text #3
ID : 6
Format : UTF-8
Codec ID : S_TEXT/UTF8
Codec ID/Info : UTF-8 Plain Text
Duration : 1 h 36 min
Bit rate : 1 b/s
Count of elements : 44
Stream size : 1.29 KiB (0%)
Title : Forced
Language : English
Default : No
Forced : No
Text #4
ID : 7
Format : UTF-8
Codec ID : S_TEXT/UTF8
Codec ID/Info : UTF-8 Plain Text
Duration : 1 h 36 min
Bit rate : 49 b/s
Count of elements : 1019
Stream size : 35.2 KiB (0%)
Language : English
Default : No
Forced : No
Text #5
ID : 8
Format : UTF-8
Codec ID : S_TEXT/UTF8
Codec ID/Info : UTF-8 Plain Text
Duration : 1 h 36 min
Bit rate : 51 b/s
Count of elements : 1019
Stream size : 36.9 KiB (0%)
Title : French
Language : French
Default : No
Forced : No
Text #6
ID : 9
Format : UTF-8
Codec ID : S_TEXT/UTF8
Codec ID/Info : UTF-8 Plain Text
Duration : 1 h 36 min
Bit rate : 47 b/s
Count of elements : 1018
Stream size : 33.6 KiB (0%)
Title : German
Language : German
Default : No
Forced : No
Text #7
ID : 10
Format : UTF-8
Codec ID : S_TEXT/UTF8
Codec ID/Info : UTF-8 Plain Text
Duration : 1 h 36 min
Bit rate : 49 b/s
Count of elements : 1020
Stream size : 34.9 KiB (0%)
Title : European Spanish
Language : Spanish
Default : No
Forced : No
Text #8
ID : 11
Format : UTF-8
Codec ID : S_TEXT/UTF8
Codec ID/Info : UTF-8 Plain Text
Duration : 1 h 36 min
Bit rate : 48 b/s
Count of elements : 1018
Stream size : 34.1 KiB (0%)
Title : Spanish
Language : Spanish
Default : No
Forced : No
Text #9
ID : 12
Format : UTF-8
Codec ID : S_TEXT/UTF8
Codec ID/Info : UTF-8 Plain Text
Duration : 1 h 36 min
Bit rate : 59 b/s
Count of elements : 1157
Stream size : 42.3 KiB (0%)
Title : Italian
Language : Italian
Default : No
Forced : No
Text #10
ID : 13
Format : UTF-8
Codec ID : S_TEXT/UTF8
Codec ID/Info : UTF-8 Plain Text
Duration : 1 h 36 min
Bit rate : 43 b/s
Count of elements : 1018
Stream size : 30.7 KiB (0%)
Title : Dutch
Language : Dutch
Default : No
Forced : No
Text #11
ID : 14
Format : UTF-8
Codec ID : S_TEXT/UTF8
Codec ID/Info : UTF-8 Plain Text
Duration : 1 h 36 min
Bit rate : 47 b/s
Count of elements : 1018
Stream size : 33.6 KiB (0%)
Title : Norwegian
Language : Norwegian
Default : No
Forced : No
Text #12
ID : 15
Format : UTF-8
Codec ID : S_TEXT/UTF8
Codec ID/Info : UTF-8 Plain Text
Duration : 1 h 36 min
Bit rate : 49 b/s
Count of elements : 1018
Stream size : 35.0 KiB (0%)
Title : Danish
Language : Danish
Default : No
Forced : No
Text #13
ID : 16
Format : UTF-8
Codec ID : S_TEXT/UTF8
Codec ID/Info : UTF-8 Plain Text
Duration : 1 h 36 min
Bit rate : 47 b/s
Count of elements : 1020
Stream size : 33.8 KiB (0%)
Title : Portuguese
Language : Portuguese
Default : No
Forced : No
Text #14
ID : 17
Format : UTF-8
Codec ID : S_TEXT/UTF8
Codec ID/Info : UTF-8 Plain Text
Duration : 1 h 36 min
Bit rate : 47 b/s
Count of elements : 1018
Stream size : 33.5 KiB (0%)
Title : Brazilian Portuguese
Language : Portuguese
Default : No
Forced : No
Text #15
ID : 18
Format : UTF-8
Codec ID : S_TEXT/UTF8
Codec ID/Info : UTF-8 Plain Text
Duration : 1 h 36 min
Bit rate : 42 b/s
Count of elements : 1018
Stream size : 29.8 KiB (0%)
Title : Polish
Language : Polish
Default : No
Forced : No
Text #16
ID : 19
Format : UTF-8
Codec ID : S_TEXT/UTF8
Codec ID/Info : UTF-8 Plain Text
Duration : 1 h 36 min
Bit rate : 85 b/s
Count of elements : 1019
Stream size : 60.5 KiB (0%)
Title : Greek
Language : Greek
Default : No
Forced : No
Text #17
ID : 20
Format : UTF-8
Codec ID : S_TEXT/UTF8
Codec ID/Info : UTF-8 Plain Text
Duration : 1 h 36 min
Bit rate : 50 b/s
Count of elements : 1018
Stream size : 35.6 KiB (0%)
Title : Swedish
Language : Swedish
Default : No
Forced : No
Text #18
ID : 21
Format : UTF-8
Codec ID : S_TEXT/UTF8
Codec ID/Info : UTF-8 Plain Text
Duration : 1 h 36 min
Bit rate : 48 b/s
Count of elements : 1016
Stream size : 34.5 KiB (0%)
Title : Finnish
Language : Finnish
Default : No
Forced : No
Text #19
ID : 22
Format : UTF-8
Codec ID : S_TEXT/UTF8
Codec ID/Info : UTF-8 Plain Text
Duration : 1 h 36 min
Bit rate : 48 b/s
Count of elements : 1016
Stream size : 34.6 KiB (0%)
Title : Turkish
Language : Turkish
Default : No
Forced : No
Скриншоты:
       
[darkos.club].t337885.torrent 
Torrent: Registered   [ 2019-10-13 00:25 ]

Download

19 KB

Воспроизвести онлайн

Status: checked
Completed: 0 times
Size: 3.54 GB, InfoHash (Google it!)
Score:  5 (vote: 2)
Default: 1  Thank you   (list)
 

_________________


Other forum [Profile] [PM]
Display posts from previous:    
Reply to topic

The time now is: Today 09:55

All times are GMT + 3 Hours



You cannot post new topics in this forum
You cannot reply to topics in this forum
You cannot edit your posts in this forum
You cannot delete your posts in this forum
You cannot vote in polls in this forum
You cannot attach files in this forum
You can download files in this forum