Today is a free download without charge Download

(Rock) Rod Stewart - Gold (2CD) - 2005[FLAC, image +.cue, lossless]

Reply to topic
 
Author
Message

sergej644 ®

Gender:

Longevity: 7 years 5 months

Posts: 636

Торрент-статистика

Post 17-Sep-2019 15:10

[Quote]

-Rod Stewart - Gold (2CD)--
Год издания: 2005
Страна: England
Жанр: Rock
Продолжительность: 02:33:46-Лейбл издания: Mercury Group Music
Страна-выпуска диска: Russia
Номер по каталогу: 4605026007697-Формат: FLAC
Битрейт аудио: Lossless
Тип рипа: image +.cue
Наличие сканов в содержимом раздачи: да
-

Трэклист

CD 1 | 01:14:31


01. Street Fighting Man (5:10)
02. Man Of Constant Sorrow (2:34)
03. An Old Raincoat Won't Ever Let You Down (3:08)
04. Handbags And Gladrags (4:26)
05. Gasoline Alley (4:07)
06. It's All Over Now (6:26)
07. Only A Hobo (4:20)
08. My Way Of Giving (4:00)
09. Country Comforts (4:46)
10. Cut Across Shorty (6:33)
11. Jo's Lament (3:30)
12. You're My Girl (I Don't Want To Discuss It) (4:33)
13. Maggie May (5:50)
14. Mandolin Wind (5:34)
15. (I Know) I'm Losing You (5:25)
16. (Find A) Reason To Believe (4:08)

CD 2 | 01:19:15


01. Every Picture Tells A Story (6:00)
02. Seems Like A Long Time (4:04)
03. That's Allright - Amazing Grace (6:00)
04. Tomorrow Is A Long Time (3:47)
05. True Blue (3:36)
06. Lost Paraguayos (3:59)
07. Angel (4:06)
08. You Wear It Well (4:24)
09. I'd Rather Go Blind (3:53)
10. Twistin' The Night Away (3:18)
11. Pinball Wizard (3:13)
12. Oh! No Not My Baby (3:41)
13. Sweet Little Rock N' Roller (3:46)
14. Mine For Me (4:04)
15. Let Me Be Your Car (5:00)
16. Bring It On Home To Me - You Send Me (3:59)
17. Farewell (4:36)
18. Missed You (4:00)
19. You Put Something Better Inside Me (3:48)
-

Лог создания рипа

CD 1

Код:
Exact Audio Copy V1.3 from 2. September 2016
Отчёт EAC об извлечении, выполненном 23. мая 2019, 11:15
Rod Stewart / Gold CD1
Дисковод: ATAPI   iHAS122   C   Adapter: 1  ID: 0
Режим чтения                 : Достоверность
Использование точного потока : Да
Отключение кэша аудио        : Да
Использование указателей C2  : Нет
Коррекция смещения при чтении                     : 6
Способность читать области Lead-in и Lead-out     : Нет
Заполнение пропущенных сэмплов тишиной            : Да
Удаление блоков с тишиной в начале и конце        : Нет
При вычислениях CRC использовались нулевые сэмплы : Да
Интерфейс                                         : Встроенный Win32-интерфейс для Win NT/2000
Выходной формат          : Пользовательский кодировщик
Выбранный битрейт        : 768 kBit/s
Качество                 : Высокий
Добавление ID3-тега      : Нет
Утилита сжатия           : C:\Program Files\Exact Audio Copy\FLAC\FLAC.EXE
Дополнительные параметры : -V -8 -T "Date=%year%" -T "Genre=%genre%" %source%
TOC извлечённого CD
     Трек |   Старт  | Длительность | Начальный сектор | Конечный сектор
    ---------------------------------------------------------------------
       1  |  0:00.00 |    5:10.31   |           0      |      23280
       2  |  5:10.31 |    2:34.33   |       23281      |      34863
       3  |  7:44.64 |    3:08.00   |       34864      |      48963
       4  | 10:52.64 |    4:26.36   |       48964      |      68949
       5  | 15:19.25 |    4:07.02   |       68950      |      87476
       6  | 19:26.27 |    6:26.03   |       87477      |     116429
       7  | 25:52.30 |    4:19.58   |      116430      |     135912
       8  | 30:12.13 |    3:59.69   |      135913      |     153906
       9  | 34:12.07 |    4:46.24   |      153907      |     175380
      10  | 38:58.31 |    6:33.34   |      175381      |     204889
      11  | 45:31.65 |    3:29.74   |      204890      |     220638
      12  | 49:01.64 |    4:33.01   |      220639      |     241114
      13  | 53:34.65 |    5:50.09   |      241115      |     267373
      14  | 59:24.74 |    5:33.39   |      267374      |     292387
      15  | 64:58.38 |    5:24.51   |      292388      |     316738
      16  | 70:23.14 |    4:07.51   |      316739      |     335314
Характеристики диапазона извлечения и сообщения об ошибках
Выбранный диапазон
     Имя файла D:\Музыка\Rod Stewart ‎– Gold (2005)\Rod Stewart - Gold CD1.wav
     Пиковый уровень 88.0 %
     Скорость извлечения 6.5 X
     Качество диапазона 100.0 %
     CRC теста 1CE6A606
     CRC копии 1CE6A606
     Копирование... OK
Ошибок не произошло
AccurateRip: сводка
Трек  1  : извлечено точно (доверие 36)  [5D5F2614]  (AR v2)
Трек  2  : извлечено точно (доверие 36)  [24E42518]  (AR v2)
Трек  3  : извлечено точно (доверие 35)  [A969DA79]  (AR v2)
Трек  4  : извлечено точно (доверие 36)  [A69246B7]  (AR v2)
Трек  5  : извлечено точно (доверие 36)  [B135E5D9]  (AR v2)
Трек  6  : извлечено точно (доверие 36)  [5439D5C2]  (AR v2)
Трек  7  : извлечено точно (доверие 37)  [F5E53E3B]  (AR v2)
Трек  8  : извлечено точно (доверие 36)  [94A243D1]  (AR v2)
Трек  9  : извлечено точно (доверие 36)  [517C06A5]  (AR v2)
Трек 10  : извлечено точно (доверие 37)  [894ED8C0]  (AR v2)
Трек 11  : извлечено точно (доверие 36)  [24E6BC2D]  (AR v2)
Трек 12  : извлечено точно (доверие 36)  [214A5FA3]  (AR v2)
Трек 13  : извлечено точно (доверие 36)  [051DCF03]  (AR v2)
Трек 14  : извлечено точно (доверие 36)  [794E603B]  (AR v2)
Трек 15  : извлечено точно (доверие 35)  [D2E4E3F2]  (AR v2)
Трек 16  : извлечено точно (доверие 36)  [553BCE94]  (AR v2)
Все треки извлечены точно
Конец отчёта

CD 2

Код:
Exact Audio Copy V1.3 from 2. September 2016
Отчёт EAC об извлечении, выполненном 23. мая 2019, 11:45
Rod Stewart / Gold CD2
Дисковод: ATAPI   iHAS122   C   Adapter: 1  ID: 0
Режим чтения                 : Достоверность
Использование точного потока : Да
Отключение кэша аудио        : Да
Использование указателей C2  : Нет
Коррекция смещения при чтении                     : 6
Способность читать области Lead-in и Lead-out     : Нет
Заполнение пропущенных сэмплов тишиной            : Да
Удаление блоков с тишиной в начале и конце        : Нет
При вычислениях CRC использовались нулевые сэмплы : Да
Интерфейс                                         : Встроенный Win32-интерфейс для Win NT/2000
Выходной формат          : Пользовательский кодировщик
Выбранный битрейт        : 768 kBit/s
Качество                 : Высокий
Добавление ID3-тега      : Нет
Утилита сжатия           : C:\Program Files\Exact Audio Copy\FLAC\FLAC.EXE
Дополнительные параметры : -V -8 -T "Date=%year%" -T "Genre=%genre%" %source%
TOC извлечённого CD
     Трек |   Старт  | Длительность | Начальный сектор | Конечный сектор
    ---------------------------------------------------------------------
       1  |  0:00.00 |    5:59.38   |           0      |      26962
       2  |  5:59.38 |    4:03.63   |       26963      |      45250
       3  | 10:03.26 |    6:00.11   |       45251      |      72261
       4  | 16:03.37 |    3:47.26   |       72262      |      89312
       5  | 19:50.63 |    3:35.59   |       89313      |     105496
       6  | 23:26.47 |    3:59.25   |      105497      |     123446
       7  | 27:25.72 |    4:06.30   |      123447      |     141926
       8  | 31:32.27 |    4:24.21   |      141927      |     161747
       9  | 35:56.48 |    3:53.34   |      161748      |     179256
      10  | 39:50.07 |    3:18.35   |      179257      |     194141
      11  | 43:08.42 |    3:12.69   |      194142      |     208610
      12  | 46:21.36 |    3:41.28   |      208611      |     225213
      13  | 50:02.64 |    3:45.48   |      225214      |     242136
      14  | 53:48.37 |    4:03.60   |      242137      |     260421
      15  | 57:52.22 |    5:00.00   |      260422      |     282921
      16  | 62:52.22 |    3:59.10   |      282922      |     300856
      17  | 66:51.32 |    4:35.65   |      300857      |     321546
      18  | 71:27.22 |    3:59.57   |      321547      |     339528
      19  | 75:27.04 |    3:47.47   |      339529      |     356600
Характеристики диапазона извлечения и сообщения об ошибках
Выбранный диапазон
     Имя файла D:\Музыка\Rod Stewart ‎– Gold (2005)\Rod Stewart - Gold CD2.wav
     Пиковый уровень 100.0 %
     Скорость извлечения 6.9 X
     Качество диапазона 100.0 %
     CRC теста 4766FE07
     CRC копии 4766FE07
     Копирование... OK
Ошибок не произошло
AccurateRip: сводка
Трек  1  : извлечено точно (доверие 38)  [C2F5A6DF]  (AR v2)
Трек  2  : извлечено точно (доверие 36)  [05AF709E]  (AR v2)
Трек  3  : извлечено точно (доверие 38)  [29290733]  (AR v2)
Трек  4  : извлечено точно (доверие 38)  [145759A9]  (AR v2)
Трек  5  : извлечено точно (доверие 38)  [689D8704]  (AR v2)
Трек  6  : извлечено точно (доверие 39)  [7F479002]  (AR v2)
Трек  7  : извлечено точно (доверие 36)  [5EF6DDE6]  (AR v2)
Трек  8  : извлечено точно (доверие 36)  [EE892CBB]  (AR v2)
Трек  9  : извлечено точно (доверие 37)  [A65BF5B4]  (AR v2)
Трек 10  : извлечено точно (доверие 38)  [47C52012]  (AR v2)
Трек 11  : извлечено точно (доверие 38)  [364FC7DB]  (AR v2)
Трек 12  : извлечено точно (доверие 37)  [31ED6E39]  (AR v2)
Трек 13  : извлечено точно (доверие 38)  [AF3EE4DE]  (AR v2)
Трек 14  : извлечено точно (доверие 36)  [19FB9FA9]  (AR v2)
Трек 15  : извлечено точно (доверие 37)  [772DC3DA]  (AR v2)
Трек 16  : извлечено точно (доверие 36)  [9EFF4EA4]  (AR v2)
Трек 17  : извлечено точно (доверие 37)  [C6C932C4]  (AR v2)
Трек 18  : извлечено точно (доверие 36)  [07FED7DA]  (AR v2)
Трек 19  : извлечено точно (доверие 35)  [76AB5770]  (AR v2)
Все треки извлечены точно
Конец отчёта

Индексная карта (non-compilant .cue)

CD 1

Код:
REM GENRE Rock
REM DATE 2005
REM DISCID CE117610
REM COMMENT "ExactAudioCopy v1.3"
PERFORMER "Rod Stewart"
TITLE "Gold CD1"
REM COMPOSER ""
FILE "Rod Stewart - Gold CD1.flac" WAVE
  TRACK 01 AUDIO
    TITLE "Street Fighting Man"
    PERFORMER "Rod Stewart"
    REM COMPOSER ""
    INDEX 01 00:00:00
  TRACK 02 AUDIO
    TITLE "Man Of Constant Sorrow"
    PERFORMER "Rod Stewart"
    REM COMPOSER ""
    INDEX 00 05:04:70
    INDEX 01 05:10:31
  TRACK 03 AUDIO
    TITLE "An Old Raincoat Won't Ever Let You Down"
    PERFORMER "Rod Stewart"
    REM COMPOSER ""
    INDEX 00 07:42:22
    INDEX 01 07:44:64
  TRACK 04 AUDIO
    TITLE "Handbags And Gladrags"
    PERFORMER "Rod Stewart"
    REM COMPOSER ""
    INDEX 00 10:50:23
    INDEX 01 10:52:64
  TRACK 05 AUDIO
    TITLE "Gasoline Alley"
    PERFORMER "Rod Stewart"
    REM COMPOSER ""
    INDEX 00 15:16:56
    INDEX 01 15:19:25
  TRACK 06 AUDIO
    TITLE "It's All Over Now"
    PERFORMER "Rod Stewart"
    REM COMPOSER ""
    INDEX 00 19:21:37
    INDEX 01 19:26:27
  TRACK 07 AUDIO
    TITLE "Only A Hobo"
    PERFORMER "Rod Stewart"
    REM COMPOSER ""
    INDEX 00 25:48:28
    INDEX 01 25:52:30
  TRACK 08 AUDIO
    TITLE "My Way Of Giving"
    PERFORMER "Rod Stewart"
    REM COMPOSER ""
    INDEX 00 30:07:17
    INDEX 01 30:12:13
  TRACK 09 AUDIO
    TITLE "Country Comforts"
    PERFORMER "Rod Stewart"
    REM COMPOSER ""
    INDEX 00 34:09:16
    INDEX 01 34:12:07
  TRACK 10 AUDIO
    TITLE "Cut Across Shorty"
    PERFORMER "Rod Stewart"
    REM COMPOSER ""
    INDEX 00 38:55:51
    INDEX 01 38:58:31
  TRACK 11 AUDIO
    TITLE "Jo's Lament"
    PERFORMER "Rod Stewart"
    REM COMPOSER ""
    INDEX 00 45:29:23
    INDEX 01 45:31:65
  TRACK 12 AUDIO
    TITLE "You're My Girl (I Don't Want To Discuss It)"
    PERFORMER "Rod Stewart"
    REM COMPOSER ""
    INDEX 00 48:57:34
    INDEX 01 49:01:64
  TRACK 13 AUDIO
    TITLE "Maggie May"
    PERFORMER "Rod Stewart"
    REM COMPOSER ""
    INDEX 00 53:31:22
    INDEX 01 53:34:65
  TRACK 14 AUDIO
    TITLE "Mandolin Wind"
    PERFORMER "Rod Stewart"
    REM COMPOSER ""
    INDEX 00 59:20:72
    INDEX 01 59:24:74
  TRACK 15 AUDIO
    TITLE "(I Know) I'm Losing You"
    PERFORMER "Rod Stewart"
    REM COMPOSER ""
    INDEX 00 64:56:73
    INDEX 01 64:58:38
  TRACK 16 AUDIO
    TITLE "(Find A) Reason To Believe"
    PERFORMER "Rod Stewart"
    REM COMPOSER ""
    INDEX 00 70:19:63
    INDEX 01 70:23:14

CD 2

Код:
REM GENRE Rock
REM DATE 2005
REM DISCID 1B129213
REM COMMENT "ExactAudioCopy v1.3"
PERFORMER "Rod Stewart"
TITLE "Gold CD2"
REM COMPOSER ""
FILE "Rod Stewart - Gold CD2.flac" WAVE
  TRACK 01 AUDIO
    TITLE "Every Picture Tells A Story"
    PERFORMER "Rod Stewart"
    REM COMPOSER ""
    INDEX 01 00:00:00
  TRACK 02 AUDIO
    TITLE "Seems Like A Long Time"
    PERFORMER "Rod Stewart"
    REM COMPOSER ""
    INDEX 00 05:57:47
    INDEX 01 05:59:38
  TRACK 03 AUDIO
    TITLE "That's Allright - Amazing Grace"
    PERFORMER "Rod Stewart"
    REM COMPOSER ""
    INDEX 00 09:59:32
    INDEX 01 10:03:26
  TRACK 04 AUDIO
    TITLE "Tomorrow Is A Long Time"
    PERFORMER "Rod Stewart"
    REM COMPOSER ""
    INDEX 01 16:03:37
  TRACK 05 AUDIO
    TITLE "True Blue"
    PERFORMER "Rod Stewart"
    REM COMPOSER ""
    INDEX 00 19:48:22
    INDEX 01 19:50:63
  TRACK 06 AUDIO
    TITLE "Lost Paraguayos"
    PERFORMER "Rod Stewart"
    REM COMPOSER ""
    INDEX 00 23:23:17
    INDEX 01 23:26:47
  TRACK 07 AUDIO
    TITLE "Angel"
    PERFORMER "Rod Stewart"
    REM COMPOSER ""
    INDEX 00 27:23:29
    INDEX 01 27:25:72
  TRACK 08 AUDIO
    TITLE "You Wear It Well"
    PERFORMER "Rod Stewart"
    REM COMPOSER ""
    INDEX 00 31:29:60
    INDEX 01 31:32:27
  TRACK 09 AUDIO
    TITLE "I'd Rather Go Blind"
    PERFORMER "Rod Stewart"
    REM COMPOSER ""
    INDEX 00 35:53:32
    INDEX 01 35:56:48
  TRACK 10 AUDIO
    TITLE "Twistin' The Night Away"
    PERFORMER "Rod Stewart"
    REM COMPOSER ""
    INDEX 00 39:48:30
    INDEX 01 39:50:07
  TRACK 11 AUDIO
    TITLE "Pinball Wizard"
    PERFORMER "Rod Stewart"
    REM COMPOSER ""
    INDEX 00 43:05:74
    INDEX 01 43:08:42
  TRACK 12 AUDIO
    TITLE "Oh! No Not My Baby"
    PERFORMER "Rod Stewart"
    REM COMPOSER ""
    INDEX 00 46:18:61
    INDEX 01 46:21:36
  TRACK 13 AUDIO
    TITLE "Sweet Little Rock N' Roller"
    PERFORMER "Rod Stewart"
    REM COMPOSER ""
    INDEX 00 50:00:21
    INDEX 01 50:02:64
  TRACK 14 AUDIO
    TITLE "Mine For Me"
    PERFORMER "Rod Stewart"
    REM COMPOSER ""
    INDEX 00 53:45:68
    INDEX 01 53:48:37
  TRACK 15 AUDIO
    TITLE "Let Me Be Your Car"
    PERFORMER "Rod Stewart"
    REM COMPOSER ""
    INDEX 00 57:49:54
    INDEX 01 57:52:22
  TRACK 16 AUDIO
    TITLE "Bring It On Home To Me - You Send Me"
    PERFORMER "Rod Stewart"
    REM COMPOSER ""
    INDEX 00 62:49:53
    INDEX 01 62:52:22
  TRACK 17 AUDIO
    TITLE "Farewell"
    PERFORMER "Rod Stewart"
    REM COMPOSER ""
    INDEX 00 66:48:65
    INDEX 01 66:51:32
  TRACK 18 AUDIO
    TITLE "Missed You"
    PERFORMER "Rod Stewart"
    REM COMPOSER ""
    INDEX 00 71:24:55
    INDEX 01 71:27:22
  TRACK 19 AUDIO
    TITLE "You Put Something Better Inside Me"
    PERFORMER "Rod Stewart"
    REM COMPOSER ""
    INDEX 00 75:24:36
    INDEX 01 75:27:04
-

Дополнительная информация:

Rod Stewart - британский певец и автор песен, получивший известность сначала в The Jeff Beck Group, затем в The Faces. Наибольшего успеха Род Стюарт добился на сольном поприще, в основном в Великобритании, где 7 его альбомов поднимались на первое место UK Albums Chart, а из 62 хит-синглов 22 входили в первую десятку. В списке журнала Q «100 величайших певцов» (англ. 100 Greatest Singers) Род Стюарт занимает 33-е место.

для ознакомления:


--

_________________
Other forum [Profile] [PM]
Display posts from previous:    
Reply to topic

The time now is: Today 04:48

All times are GMT + 3 Hours



You cannot post new topics in this forum
You cannot reply to topics in this forum
You cannot edit your posts in this forum
You cannot delete your posts in this forum
You cannot vote in polls in this forum
You cannot attach files in this forum
You cannot download files in this forum