Today is a free download without charge Download

Пацаны / The Boys (2019) WEBRip [H.264/720р-LQ] (сезон 1, серии 1-8 из 8) Kerob [AD]

Reply to topic
 
Author
Message

Clavik ®

Gender:

Longevity: 7 years 6 months

Posts: 2496

Location: Украина

Торрент-статистика

Post 20-Aug-2019 09:08

[Quote]

Пацаны / The Boys (2019) WEBRip (сезон 1, серии 1-8 из 8) - Производство: США / Amazon Studios, Original Film, Sony Pictures Television
Жанр: фантастика, боевик, комедия, криминал
Режиссер: Филип Сгриккиа, Дэниэл Эттиэс, Дженнифер Фанг
Актеры: Карл Урбан, Чейс Кроуфорд, Доминик МакЭллигот, Нэйтан Митчелл, Эрин Мориарти, Джек Куэйд, Элизабет Шу, Энтони Старр, Джесси Ашер, Лас Алонсо
Описание:
Действие сериала разворачивается в мире, где существуют супергерои. Именно они являются настоящими звездами. Их все знают и обожают. Но за идеальным фасадом скрывается гораздо более мрачный мир наркотиков и секса, а большинство героев — в жизни не самые приятные люди. Для контроля за супергероями ЦРУ создает специальный отряд, неофициально известный как «Пацаны», суровые члены которого всегда готовы поставить зазнавшегося героя на место самым жестоким способом.

TV Parental Guidelines (US): TV-MA (для взрослых, не рекомендуется лицам до 17 лет)
Дата мировой премьеры: 16 июля 2019
Продолжительность: 8 х ~ 01:01:00
Качество видео: WEBRip
Перевод: Любительский двухголосый - Kerob
Реклама: присутствуют видео, аудио, текстовые вставки рекламы
Видео: AVC/H.264, 1280x544, ~4000 Kbps
Аудио: AC3, 2 ch, 128 Kbps - русский

MediaInfo:

General
Unique ID : 140533132895252581230691256105438137435 (0x69B9B266DE6312E239EDA1732E6DCC5B)
Complete name : I:\The.Boys.S01.720p.Kerob\The.Boys.S01E01.720p.Kerob.mkv
Format : Matroska
Format version : Version 4
File size : 1.75 GiB
Duration : 1 h 2 min
Overall bit rate mode : Constant
Overall bit rate : 4 003 kb/s
Encoded date : UTC 2019-07-27 07:40:03
Writing application : mkvmerge v31.0.0 ('Dolores In A Shoestand') 64-bit
Writing library : libebml v1.3.6 + libmatroska v1.4.9
Video
ID : 1
Format : AVC
Format/Info : Advanced Video Codec
Format profile : [url=mailto:High@L3.1]High@L3.1[/url]
Format settings : CABAC / 1 Ref Frames
Format settings, CABAC : Yes
Format settings, ReFrames : 1 frame
Format settings, GOP : M=1, N=25
Codec ID : V_MPEG4/ISO/AVC
Duration : 1 h 2 min
Bit rate mode : Constant
Bit rate : 4 000 kb/s
Width : 1 280 pixels
Height : 544 pixels
Display aspect ratio : 2.35:1
Frame rate mode : Constant
Frame rate : 23.976 (24000/1001) FPS
Color space : YUV
Chroma subsampling : 4:2:0
Bit depth : 8 bits
Scan type : Progressive
Bits/(Pixel*Frame) : 0.240
Stream size : 1.69 GiB (97%)
Language : English
Default : Yes
Forced : No
Audio
ID : 2
Format : AC-3
Format/Info : Audio Coding 3
Commercial name : Dolby Digital
Codec ID : A_AC3
Duration : 1 h 2 min
Bit rate mode : Constant
Bit rate : 128 kb/s
Channel(s) : 2 channels
Channel layout : L R
Sampling rate : 48.0 kHz
Frame rate : 31.250 FPS (1536 SPF)
Bit depth : 16 bits
Compression mode : Lossy
Stream size : 57.2 MiB (3%)
Language : Russian
Service kind : Complete Main
Default : Yes
Forced : No

Дополнительная информация:

Сериал основан на одноименной серии комиксов сценариста Гарта Энниса и художника Дэрика Робертсона выходившей с 2006 по 2012 года.
Скриншоты:
       

_________________


Other forum [Profile] [PM]

Clavik ®

Gender:

Longevity: 7 years 6 months

Posts: 2496

Location: Украина

Торрент-статистика

Post 20-Aug-2019 09:09 (after 42 seconds)

[Quote]

рекомендую ) интересный сериал

_________________


Other forum [Profile] [PM]
Display posts from previous:    
Reply to topic

The time now is: Today 15:04

All times are GMT + 3 Hours



You cannot post new topics in this forum
You cannot reply to topics in this forum
You cannot edit your posts in this forum
You cannot delete your posts in this forum
You cannot vote in polls in this forum
You cannot attach files in this forum
You cannot download files in this forum