Today is a free download without charge Download

Дорога чести / Путь в Палому / Road to Paloma (2014) BDRip [H.264] [PR]

Reply to topic
DL-List and Torrent activity
Size:  2.13 GB   |    Registered:  4 months 2 days   |    Completed:  0 times

Seeder not seen: 2 months 24 days

 
 
 
 
 
Author
Message

Clavik ®

Gender:

Longevity: 6 years 2 months

Posts: 2378

Location: Украина

Торрент-статистика

Post 11-Aug-2019 00:06

[Quote]

Дорога чести / Путь в Палому / Road to Paloma (2014) BDRip [H.264]
«On the road. On the run»
- Производство: США / Boss Media, Pride of Gypsies
Жанр: триллер, драма
Режиссер: Джейсон Момоа
Актеры: Ти Александр, Henree Alyse, Лиза Боне, Kenneth Dale Borill, Крис Браунинг, Charlie Brumbly, Линден Чайлз, Michael Hayes, Лэнс Хенриксен, Роберт Гомер Моллохан
Описание: Роберт Вольф, коренной американец, совершив самосуд над убийцей матери, вынужден скрываться от полиции. Его железный конь не знает усталости и летит по бескрайним пустынным хайвеям Америки. На пути Роберт встречает такого же бродягу на мотоцикле и дорога становится домом для них обоих.

Возраст: 18+ (зрителям, достигшим 18 лет. запрещено для детей)
Рейтинг MPAA: R (лицам до 17 лет обязательно присутствие взрослого)
Релиз от: stalkerok & New-Team
Продолжительность: 01:30:28
Качество видео: BDRip [url=http://sendfile.su/1510264]
Перевод: Многоголосый закадровый, профессиональный (Soul-Pro | Кинопремьера HD)
Субтитры: русские (полные), английские (полные, SDH)
Видео: AVC/H.264, 2471 kbps, 1152x480 (2.40:1), 23,976 fps
Аудио №1: AC3, 448 kbps, 6 ch - русский
Аудио №2: AC3, 448 kbps, 6 ch - английский

Доп. Инфо

Исходник: Road to Paloma 2014 1080p Blu-ray Remux AVC TrueHD 5.1 - KRaLiMaRKo

MediaInfo

---[Information] [09.08.2019 20:40:03] x264 [info]: frame I:775   Avg QP:15.18  size: 58275
---[Information] [09.08.2019 20:40:03] x264 [info]: frame P:27610 Avg QP:16.46 size: 25492
---[Information] [09.08.2019 20:40:03] x264 [info]: frame B:101767 Avg QP:18.78 size: 9120
General
Unique ID : 286155149592718309271178532751293454668 (0xD7477A25763BFFB3DD920A329D9A994C)
Complete name : C:\temp\Road to Paloma\Road.to.Paloma.2014.BDRip.x264.Rus.Eng.stalkerok.New-Team.mkv
Format : Matroska
Format version : Version 4
File size : 2.13 GiB
Duration : 1 h 30 min
Overall bit rate : 3 370 kb/s
Movie name : Road to Paloma (2014) | Rip by stalkerok
Encoded date : UTC 2019-08-10 13:14:48
Writing application : mkvmerge v33.1.0 ('Primrose') 64-bit
Writing library : libebml v1.3.7 + libmatroska v1.5.0
Video
ID : 1
Format : AVC
Format/Info : Advanced Video Codec
Format profile : [url=mailto:High@L4.1]High@L4.1[/url]
Format settings : CABAC / 12 Ref Frames
Format settings, CABAC : Yes
Format settings, RefFrames : 12 frames
Codec ID : V_MPEG4/ISO/AVC
Duration : 1 h 30 min
Bit rate : 2 472 kb/s
Width : 1 152 pixels
Height : 480 pixels
Display aspect ratio : 2.40:1
Frame rate mode : Constant
Frame rate : 23.976 (24000/1001) FPS
Color space : YUV
Chroma subsampling : 4:2:0
Bit depth : 8 bits
Scan type : Progressive
Bits/(Pixel*Frame) : 0.186
Stream size : 1.56 GiB (73%)
Title : Road to Paloma (2014) | Rip by stalkerok
Writing library : x264 core 158 r2984+49 6932f4a t_mod_New [0-bit@all X86_64]
Encoding settings : cabac=1 / ref=12 / deblock=1:-3:-2 / analyse=0x3:0x133 / me=umh / subme=11 / psy=1 / fade_compensate=0.00 / psy_rd=1.00:0.00 / mixed_ref=1 / me_range=32 / chroma_me=1 / trellis=2 / 8x8dct=1 / cqm=0 / deadzone=21,11 / fast_pskip=0 / chroma_qp_offset=-2 / threads=12 / lookahead_threads=3 / sliced_threads=0 / nr=0 / decimate=1 / interlaced=0 / bluray_compat=0 / constrained_intra=0 / fgo=0 / bframes=14 / b_pyramid=2 / b_adapt=2 / b_bias=0 / direct=3 / weightb=1 / open_gop=0 / weightp=2 / keyint=240 / keyint_min=23 / scenecut=40 / intra_refresh=0 / rc_lookahead=60 / rc=crf / mbtree=0 / crf=17.6000 / qcomp=0.65 / qpmin=0:0:0 / qpmax=69:69:69 / qpstep=4 / vbv_maxrate=50000 / vbv_bufsize=62500 / crf_max=0.0 / nal_hrd=none / filler=0 / ip_ratio=1.40 / pb_ratio=1.30 / aq=3:0.80 / aq-sensitivity=10.00 / aq-factor=1.00:1.00:1.00 / aq2=0 / aq3=0 / zones=124493,130151,q=32
Default : Yes
Forced : No
Audio #1
ID : 2
Format : AC-3
Format/Info : Audio Coding 3
Commercial name : Dolby Digital
Codec ID : A_AC3
Duration : 1 h 30 min
Bit rate mode : Constant
Bit rate : 448 kb/s
Channel(s) : 6 channels
Channel layout : L R C LFE Ls Rs
Sampling rate : 48.0 kHz
Frame rate : 31.250 FPS (1536 SPF)
Bit depth : 16 bits
Compression mode : Lossy
Stream size : 290 MiB (13%)
Title : MVO Soul-Pro (Кинопремьера HD)
Language : Russian
Service kind : Complete Main
Default : Yes
Forced : No
Audio #2
ID : 3
Format : AC-3
Format/Info : Audio Coding 3
Commercial name : Dolby Digital
Codec ID : A_AC3
Duration : 1 h 30 min
Bit rate mode : Constant
Bit rate : 448 kb/s
Channel(s) : 6 channels
Channel layout : L R C LFE Ls Rs
Sampling rate : 48.0 kHz
Frame rate : 31.250 FPS (1536 SPF)
Bit depth : 16 bits
Compression mode : Lossy
Stream size : 290 MiB (13%)
Language : English
Service kind : Complete Main
Default : No
Forced : No
Text #1
ID : 4
Format : UTF-8
Codec ID : S_TEXT/UTF8
Codec ID/Info : UTF-8 Plain Text
Duration : 1 h 24 min
Bit rate : 45 b/s
Count of elements : 758
Stream size : 28.1 KiB (0%)
Title : Full (anna_sovest)
Language : Russian
Default : No
Forced : No
Text #2
ID : 5
Format : UTF-8
Codec ID : S_TEXT/UTF8
Codec ID/Info : UTF-8 Plain Text
Duration : 1 h 28 min
Bit rate : 39 b/s
Count of elements : 931
Stream size : 25.5 KiB (0%)
Title : Full
Language : English
Default : No
Forced : No
Text #3
ID : 6
Format : UTF-8
Codec ID : S_TEXT/UTF8
Codec ID/Info : UTF-8 Plain Text
Duration : 1 h 29 min
Bit rate : 42 b/s
Count of elements : 1044
Stream size : 27.8 KiB (0%)
Title : SDH
Language : English
Default : No
Forced : No
Text #4
ID : 7
Format : UTF-8
Codec ID : S_TEXT/UTF8
Codec ID/Info : UTF-8 Plain Text
Duration : 1 h 30 min
Bit rate : 51 b/s
Count of elements : 1046
Stream size : 34.1 KiB (0%)
Title : SDH Colored
Language : English
Default : No
Forced : No
Menu
00:00:00.000 : en:00:00:00.000
00:04:12.419 : en:00:04:12.419
00:13:57.920 : en:00:13:57.920
00:21:19.987 : en:00:21:19.987
00:28:26.371 : en:00:28:26.371
00:37:09.227 : en:00:37:09.227
00:49:37.349 : en:00:49:37.349
00:57:21.021 : en:00:57:21.021
01:06:13.178 : en:01:06:13.178
01:12:40.856 : en:01:12:40.856
01:19:33.811 : en:01:19:33.811
01:26:23.762 : en:01:26:23.762
Скриншоты:
       
[darkos.club].t336875.torrent 
Torrent: Registered   [ 2019-08-11 00:06 ]

Download

12 KB

Воспроизвести онлайн

Status: checked
Completed: 0 times
Size: 2.13 GB, InfoHash (Google it!)
Score:  5 (vote: 1)
Default: 0  Thank you
 

_________________


Other forum [Profile] [PM]
Display posts from previous:    
Reply to topic

The time now is: Today 10:54

All times are GMT + 3 Hours



You cannot post new topics in this forum
You cannot reply to topics in this forum
You cannot edit your posts in this forum
You cannot delete your posts in this forum
You cannot vote in polls in this forum
You cannot attach files in this forum
You can download files in this forum