Today is a free download without charge Download

Animal Planet: Дикие реки Африки / Wild Africa. Rivers of Life (2016) HDTV [H.264/1080i] (Сезон 1, серии 7 из 7)

Reply to topic
 
Author
Message

RazBoyNik ®

Gender:

Longevity: 7 years 8 months

Posts: 478

Торрент-статистика

Post 12-Jul-2019 14:47

[Quote]

Дикие реки Африки / Wild Africa. Rivers of Life (2016) HDTV [H.264/1080i] (Сезон 1, серии 7 из 7) - Год выпуска: 2016
Страна: Южная Африка, Lion Mountain Media, Warehouse 51 Productions, ZDF Enterprises, Animal Planet
Жанр: Документальный, природа, флора, фауна
Участники: Bray Poor
Описание:
Африка - не безжизненная пустыня. Ее земли питают реки, артерии черного континента. Животворящие потоки подстраиваются под ландшафт и формируют облик материка, пробегая по выжженным солнцем пустыням, пробивая дорогу через кустарниковые заросли, мирно журча по травянистым саваннам. Программа исследует, как река рождается и набирает силу, каким образом влияет на окружающую природу и как связывает людей и животных, населяющих её берега. Будь то Лимпопо с её засушливой долиной, Луангва - родина самой большой в мире популяции гиппопотамов, или же Замбези, протекающая по территории девяти африканских стран - у каждой реки есть своя история, которую может рассказать только она одна.
Продолжительность: 00:44:00
Качество видео: HDTV
Перевод: Дублированный
Субтитры: отсутствуют
Видео: AVC/H.264, 1920x1080, ~10,7 Mbps
Аудио#1: MP2, 2 ch, 192 Kbps | Русский
Аудио#2: MP2, 2 ch, 192 Kbps | Английский

Mediainfo: (тех. данные всех серий идентичны)

Общее
Идентификатор : 1 (0x1)
Полное имя : F:\КИНО\Дикие реки Африки 1080 (2016)\3 Дикие реки Африки.ts
Формат : MPEG-TS
Размер файла : 3,57 Гбайт
Продолжительность : 43 м. 59 с.
Режим общего битрейта : Переменный
Общий поток : 11,6 Мбит/сек
Видео
Идентификатор : 1026 (0x402)
Идентификатор меню : 119 (0x77)
Формат : AVC
Формат/Информация : Advanced Video Codec
Профиль формата : High@L4
Настройки формата : CABAC / 4 Ref Frames
Параметр CABAC формата : Да
Параметр RefFrames формата : 4 кадра
Идентификатор кодека : 27
Продолжительность : 43 м. 59 с.
Битрейт : 10,7 Мбит/сек
Ширина : 1920 пикселей
Высота : 1080 пикселей
Соотношение сторон : 16:9
Частота кадров : 25,000 кадров/сек
Стандарт вещания : Component
Цветовое пространство : YUV
Субдискретизация насыщенности : 4:2:0
Битовая глубина : 8 бит
Тип развёртки : Чересстрочная
Метод сохранения типа развёртки : Раздельные поля
Порядок развёртки : Верхнее поле первое
Бит/(Пиксели*Кадры) : 0.206
Размер потока : 3,27 Гбайт (92%)
Цветовой диапазон : Limited
Основные цвета : BT.709
Характеристики трансфера : BT.709
Коэффициенты матрицы : BT.709
Аудио #1
Идентификатор : 1027 (0x403)
Идентификатор меню : 119 (0x77)
Формат : MPEG Audio
Версия формата : Version 1
Профиль формата : Layer 2
Идентификатор кодека : 3
Продолжительность : 43 м. 59 с.
Вид битрейта : Постоянный
Битрейт : 192 Кбит/сек
Каналы : 2 канала
Частота : 48,0 КГц
Частота кадров : 41,667 кадра/сек (1152 SPF)
Метод сжатия : С потерями
Задержка видео : -40 мс.
Размер потока : 60,4 Мбайт (2%)
Язык : Russian
Аудио #2
Идентификатор : 1028 (0x404)
Идентификатор меню : 119 (0x77)
Формат : MPEG Audio
Версия формата : Version 1
Профиль формата : Layer 2
Идентификатор кодека : 3
Продолжительность : 43 м. 59 с.
Вид битрейта : Постоянный
Битрейт : 192 Кбит/сек
Каналы : 2 канала
Частота : 48,0 КГц
Частота кадров : 41,667 кадра/сек (1152 SPF)
Метод сжатия : С потерями
Задержка видео : -40 мс.
Размер потока : 60,4 Мбайт (2%)
Язык : English

Содержание:

1-я серия
Жизнь в бассейне реки Лимпопо - это вечная борьба за выживание. После окончания сильной засухи животные ждут разлива реки, но дожди запаздывают, и это настоящая беда для долины.
2-я серия
В краю, где со сменой сезонов условия экстремально меняются, река Луангва является центром жизни. Здесь обитает самая большая в мире популяция гиппопотамов.
3-я серия
Познакомьтесь с представителями животного и растительного миров, которые обитают на берегах африканских рек.
4-я серия
Дельта реки Окаванго - заболоченное место, окружённое засушливыми равнинами. Раз в год гигантский разлив затопляет болота и образует заливные луга - пристанище для диких животных.
5-я серия
Река Санд славится разнообразием животного мира. Но её обитателям непросто выживать и растить потомство в этом суровом африканском краю.
6-я серия
Протекая по территории девяти стран, река Замбези создаёт много уникальных экосистем. Как выживают животные, обитающие на ее берегах?
7-я серия
Древняя река Нил веками определяла облик Африки. Могучие нильские крокодилы, жирафы и шимпанзе взращивают свое потомство на ее берегах.
Скриншоты:
       
Other forum [Profile] [PM]
Display posts from previous:    
Reply to topic

The time now is: Today 03:53

All times are GMT + 3 Hours



You cannot post new topics in this forum
You cannot reply to topics in this forum
You cannot edit your posts in this forum
You cannot delete your posts in this forum
You cannot vote in polls in this forum
You cannot attach files in this forum
You cannot download files in this forum