Today is a free download without charge Download

Animal Planet: Удивительный мир животных / How do Animals do That (2019) HDTVRip [H.264] (эпизоды 1-20)

Reply to topic
 
Author
Message

RazBoyNik ®

Gender:

Longevity: 6 years

Posts: 388

Торрент-статистика

Post 11-Jul-2019 14:05

[Quote]

Animal Planet: Удивительный мир животных / How do Animals do That (2019) HDTVRip [H.264] (эпизоды 1-20) - Год выпуска: 2019
Страна: США, Animal Planet
Жанр: Документальный, природа, флора, фауна
Режиссер: Кети Бакланд, Гаретч Сакала
Описание:
Животные делают самые невероятные вещи, но задумывались ли вы когда-нибудь, как или почему? Ответы на самые острые вопросы мира природы. Например, как светлячки светятся в темноте? Как слоны слушают сквозь ноги? Почему собаки виляют хвостами? Всё, чтобы понять: как животные делают это?
Продолжительность: серии x ~ 00:22:00
Качество видео: HDTVRip
Перевод: Одноголосый закадровый, профессиональный
Субтитры: отсутствуют
Видео: AVC/H.264, 1024х576, ~3000 Kbps
Аудио: AC3, 2 ch, 192 Kbps

Mediainfo: (тех. данные всех серий идентичны)

Общее
Уникальный идентификатор : 34215615100709361218449819318919371344 (0x19BDB0119DDB64A2DF857E7C4D141A50)
Полное имя : F:\КИНО\Удивительный мир животных AVC (2019)\1 Удивительный мир животных.mkv
Формат : Matroska
Версия формата : Version 4
Размер файла : 501 Мбайт
Продолжительность : 21 м. 55 с.
Общий поток : 3196 Кбит/сек
Программа кодирования : XviD4PSP 7.0.468 DAILY
Библиотека кодирования : Lavf57.71.100
ErrorDetectionType : Per level 1
ENCODING_INFO : MPEGTS > MKV / H264 > X264 VBR-2P 3000kbps HQ / MP2 > AC3 CBR 192kbps
Видео
Идентификатор : 1
Формат : AVC
Формат/Информация : Advanced Video Codec
Профиль формата : [url=mailto:High@L3.1]High@L3.1[/url]
Настройки формата : CABAC / 4 Ref Frames
Параметр CABAC формата : Да
Параметр RefFrames формата : 4 кадра
Идентификатор кодека : V_MPEG4/ISO/AVC
Продолжительность : 21 м. 55 с.
Битрейт : 3000 Кбит/сек
Ширина : 1024 пикселя
Высота : 576 пикселей
Соотношение сторон : 16:9
Режим частоты кадров : Постоянный
Частота кадров : 25,000 кадров/сек
Цветовое пространство : YUV
Субдискретизация насыщенности : 4:2:0
Битовая глубина : 8 бит
Тип развёртки : Прогрессивная
Бит/(Пиксели*Кадры) : 0.203
Размер потока : 461 Мбайт (92%)
Библиотека кодирования : x264 core 157 r2935 545de2f
Настройки программы : cabac=1 / ref=3 / deblock=1:-1:-1 / analyse=0x3:0x133 / me=hex / subme=7 / psy=1 / psy_rd=1.00:0.20 / mixed_ref=1 / me_range=16 / chroma_me=1 / trellis=1 / 8x8dct=1 / cqm=0 / deadzone=21,11 / fast_pskip=1 / chroma_qp_offset=-3 / threads=9 / lookahead_threads=1 / sliced_threads=0 / nr=0 / decimate=1 / interlaced=0 / bluray_compat=0 / constrained_intra=0 / bframes=3 / b_pyramid=2 / b_adapt=2 / b_bias=0 / direct=3 / weightb=1 / open_gop=0 / weightp=2 / keyint=250 / keyint_min=25 / scenecut=40 / intra_refresh=0 / rc_lookahead=40 / rc=2pass / mbtree=1 / bitrate=3000 / ratetol=1.0 / qcomp=0.60 / qpmin=0 / qpmax=69 / qpstep=4 / cplxblur=20.0 / qblur=0.5 / ip_ratio=1.40 / aq=1:1.00
Default : Да
Forced : Нет
Цветовой диапазон : Limited
Основные цвета : BT.709
Характеристики трансфера : BT.709
Коэффициенты матрицы : BT.709
Аудио
Идентификатор : 2
Формат : AC-3
Формат/Информация : Audio Coding 3
Коммерческое название : Dolby Digital
Идентификатор кодека : A_AC3
Продолжительность : 21 м. 55 с.
Вид битрейта : Постоянный
Битрейт : 192 Кбит/сек
Каналы : 2 канала
Channel layout : L R
Частота : 48,0 КГц
Частота кадров : 31,250 кадров/сек (1536 SPF)
Битовая глубина : 16 бит
Метод сжатия : С потерями
Размер потока : 30,1 Мбайт (6%)
Язык : Russian
ServiceKind/String : Complete Main
Default : Да
Forced : Нет

Содержание:

1 Левитирующие ящерицы и бессмертные медузы
Новейшие научные данные раскрывают, почему и как ящерицы могут в буквальном смысле ходить по воде. А также, могут ли медузы жить вечно?
2 Сверхзвуковые совы и невидимые осьминоги
Орнитолог рассказывает, как амбарная сова ловит добычу, даже не видя её. И что делает осьминога мастером маскировки?
5 Ясновидящие кошки и пушистые выдры
Новейшие научные данные объясняют способность кошки предсказывать землетрясение за секунды до его начала. И как морские выдры сохраняют тепло в ледяной воде?
6 Хобот слона и древние животные
Новейшие научные данные раскрывают интересные факты о хоботе слонов. А так же, почему кошки мурлычут и кого из животных можно назвать долгожителями?
7 Суперумные дельфины и голодные гиены
Так ли умны дельфины, как считается? Как гиены едят свою добычу вместе с костями? И как гекконы бросают вызов гравитации?
8 Космические жуки и ментальные карты белок
Любят ли аллигаторы музыку? Как белки могут прятать до 10 000 орехов за один сезон и при этом находить большинство из них? И может ли микроорганизм выжить в космосе?
9 Летучие мыши и слизни
Как стаи слепых летучих мышей избегают столкновений? Действительно ли мыши любят сыр? Что делает газы в кишечнике ламантинов такими особенными? И почему слизни такие скользкие?
10 Горбатые киты и пауки
Эксперты изучают, каким образом горбатые киты выпрыгивают так далеко из воды. Почему собаки наклоняют головы? От чего животные собираются в стаи? И как пауки сбрасывают кожу?
11-я серия
С помощью интересного эксперимента ученые проверяют, умнее ли дикие волки домашних собак. А также, могут ли пауки летать? И как белые медведи сохраняют тепло?
12-я серия
Эксперты выясняют, почему тонущие муравьи не тонут, почему у дятлов не болит голова, и как 4,5-метровый осьминог проникает сквозь отверстие в 7 сантиметров?
13-я серия
Многие животные обладают уникальными и удивительными способностями. Новые научные данные и захватывающие съемки позволят разгадать тайны мира животных.
14-я серия
Многие животные обладают уникальными и удивительными способностями. Новые научные данные и захватывающие съемки позволят разгадать тайны мира животных.
Скриншоты:
       
Other forum [Profile] [PM]
Display posts from previous:    
Reply to topic

The time now is: Today 21:27

All times are GMT + 3 Hours



You cannot post new topics in this forum
You cannot reply to topics in this forum
You cannot edit your posts in this forum
You cannot delete your posts in this forum
You cannot vote in polls in this forum
You cannot attach files in this forum
You cannot download files in this forum