Today is a free download without charge Download

Skillbox | Excel c 0 до PRO (2015-2016) PCRec [H.264/1080p-LQ]

Reply to topic
 
Author
Message

darkos_bot ®

Торрент-статистика

Post 17-Jun-2019 22:56

[Quote]

Skillbox | Excel c 0 до PRO (2015-2016) PCRec [H.264/1080p-LQ] - Автор (режиссер): Олег Самойленко
Производство: Skillbox
Жанр: Офисные программы
Описание:
Практический 4-х месячный курс для тех, кто хочет научиться превосходно использовать Excel на работе или в личных целях.
Продолжительность: 16:15:02
Качество видео: PCRec
Видео: AVC/H.264, 1920x1080, ~711-1157 Kbps
Аудио: AAC, 2 ch, 179-195 Kbps

MediaInfo:

Общее
Полное имя : .\Базовый\Блок 1\1.2 Интерфейс Excel, структура рабочая книга-лист-строка, столбец-ячейка\1-2.mp4
Формат : MPEG-4
Профиль формата : Base Media
Идентификатор кодека : isom (isom/iso2/avc1/mp41)
Размер файла : 86,3 Мбайт
Продолжительность : 9 м. 8 с.
Общий поток : 1319 Кбит/сек
Программа кодирования : Lavf58.12.100
Видео
Идентификатор : 1
Формат : AVC
Формат/Информация : Advanced Video Codec
Профиль формата : Main@L4
Настройки формата : CABAC / 2 Ref Frames
Параметр CABAC формата : Да
Параметр RefFrames формата : 2 кадра
Параметр GOP формата : M=1, N=25
Идентификатор кодека : avc1
Идентификатор кодека/Информация : Advanced Video Coding
Продолжительность : 9 м. 8 с.
Битрейт : 1117 Кбит/сек
Ширина : 1920 пикселей
Высота : 1080 пикселей
Соотношение сторон : 16:9
Режим частоты кадров : Постоянный
Частота кадров : 29,970 (30000/1001) кадров/сек
Цветовое пространство : YUV
Субдискретизация насыщенности : 4:2:0
Битовая глубина : 8 бит
Тип развёртки : Прогрессивная
Бит/(Пиксели*Кадры) : 0.018
Размер потока : 73,1 Мбайт (85%)
Codec configuration box : avcC
Аудио
Идентификатор : 2
Формат : AAC LC
Формат/Информация : Advanced Audio Codec Low Complexity
Идентификатор кодека : mp4a-40-2
Продолжительность : 9 м. 8 с.
Вид битрейта : Постоянный
Битрейт : 192 Кбит/сек
Каналы : 2 канала
Channel layout : L R
Частота : 44,1 КГц
Частота кадров : 43,066 кадра/сек (1024 SPF)
Метод сжатия : С потерями
Размер потока : 12,7 Мбайт (15%)
Default : Да
AlternateGroup/String : 1
Скриншоты:
       
 
Display posts from previous:    
Reply to topic

The time now is: Today 21:14

All times are GMT + 3 Hours



You cannot post new topics in this forum
You cannot reply to topics in this forum
You cannot edit your posts in this forum
You cannot delete your posts in this forum
You cannot vote in polls in this forum
You cannot attach files in this forum
You cannot download files in this forum