Today is a free download without charge Download

Halford - Live At Saitama Super Arena [2011 г., Heavy Metal, BDRip 1080p]

Reply to topic
 
Author
Message

sergej644 ®

Gender:

Longevity: 7 years 3 months

Posts: 636

Торрент-статистика

Post 30-Oct-2012 22:55

[Quote]

-Halford - Live At Saitama Super Arena - -
Год выпуска: 2011
Страна: USA | Metal God Entertainment
Жанр: Heavy Metal
Продолжительность: 01:02:10
Перевод: Отсутствует
Режиссер: Джон Бакстер/John Baxter
-
Описание: В записи "Halford Live At Saitama Super Arena" принимали участие Роб Хэдфорд на вокале, Рой Зет (Roy Z.) на гитаре, “Метал” Майк Класчак ("Metal" Mike Chlasciak) на гитаре, Майк Дэвис (Mike Davis) на басу и Бобби Ярзомбек (Bobby Jarzombek) на барабанах. Релиз содержит 15 треков, со звуком в формате 5.1 Surround Sound, взятых из репертуара HALFORD, FIGHT и JUDAS PRIEST.-

треклист

01. Resurrection
02. Made In Hell
03. Locked And Loaded
04. Drop Out
05. Made Of Metal
06. Undisputed
07. Nailed To The Gun
08. Golgotha
09. Fire And Ice
10. Green Manalishi (With The Two-Pronged Crown)
11. Diamonds And Rust
12. Jawbreaker
13. Cyber World
14. Like There’s No Tomorrow
15. Thunder And Lightning
-

MI

Общее
Уникальный идентификатор : 237186957176391285717647659500140222575 (0xB2708BDBEAA4164CBDB211EC9B77D86F)
Полное имя : T:\torrent files\Halford-Live At Saitama Super Arena_Rip1080_HDR.mkv
Формат : Matroska
Версия формата : Version 2
Размер файла : 6,21 Гбайт
Продолжительность : 1 ч. 2 м.
Общий поток : 14,3 Мбит/сек
Название фильма : Halford: Live At Saitama Super Arena_Rip1080_HDReactor.org
Дата кодирования : UTC 2011-11-17 14:22:15
Программа кодирования : mkvmerge v3.4.0 ('Rapunzel') сборка от May 15 2010 09:38:20
Библиотека кодирования : libebml v0.8.0 + libmatroska v0.9.0
Видео
Идентификатор : 1
Формат : AVC
Формат/Информация : Advanced Video Codec
Профиль формата : High@L4.1
Параметр CABAC формата : Да
Параметр ReFrames формата : 4 кадра
Идентификатор кодека : V_MPEG4/ISO/AVC
Продолжительность : 1 ч. 2 м.
Битрейт : 13,9 Мбит/сек
Ширина : 1920 пикселей
Высота : 1080 пикселей
Соотношение сторон : 16:9
Частота кадров : 29,970 кадров/сек
Цветовое пространство : YUV
Субдискретизация насыщенности : 4:2:0
Битовая глубина : 8 бит
Тип развёртки : Прогрессивная
Бит/(Пиксели*Кадры) : 0.223
Размер потока : 5,89 Гбайт (95%)
Библиотека кодирования : x264 core 116 r2074 2641b9e
Настройки программы : cabac=1 / ref=4 / deblock=1:-3:-3 / analyse=0x3:0x113 / me=umh / subme=10 / psy=1 / psy_rd=1.00:0.00 / mixed_ref=1 / me_range=32 / chroma_me=1 / trellis=2 / 8x8dct=1 / cqm=0 / deadzone=21,11 / fast_pskip=0 / chroma_qp_offset=-1 / threads=6 / sliced_threads=0 / slices=4 / nr=0 / decimate=1 / interlaced=0 / bluray_compat=0 / constrained_intra=0 / bframes=7 / b_pyramid=2 / b_adapt=2 / b_bias=0 / direct=1 / weightb=1 / open_gop=0 / weightp=2 / keyint=250 / keyint_min=23 / scenecut=40 / intra_refresh=0 / rc_lookahead=40 / rc=2pass / mbtree=0 / bitrate=13864 / ratetol=1.0 / qcomp=0.60 / qpmin=10 / qpmax=51 / qpstep=4 / cplxblur=20.0 / qblur=0.5 / vbv_maxrate=50000 / vbv_bufsize=50000 / nal_hrd=none / ip_ratio=1.40 / pb_ratio=1.30 / aq=1:1.00
Язык : English
Аудио
Идентификатор : 2
Формат : AC-3
Формат/Информация : Audio Coding 3
Расширение режима : CM (complete main)
Идентификатор кодека : A_AC3
Продолжительность : 1 ч. 2 м.
Вид битрейта : Постоянный
Битрейт : 448 Кбит/сек
Каналы : 6 каналов
Расположение каналов : Front: L C R, Side: L R, LFE
Частота : 48,0 КГц
Битовая глубина : 16 бит
Метод сжатия : С потерями
Размер потока : 199 Мбайт (3%)
Язык : English
Текст
Идентификатор : 3
Формат : UTF-8
Идентификатор кодека : S_TEXT/UTF8
Идентификатор кодека/Информация : UTF-8 Plain Text
Язык : English
Меню
00:00:00.000 : :Chapter 01
00:00:00.367 : :Chapter 02
00:00:27.460 : :Resurrection
00:03:51.130 : :Made In Hell
00:08:07.587 : :Locked And Loaded
00:11:32.091 : :Drop Out
00:15:28.327 : :Made Of Metal
00:19:34.806 : :Undisputed
00:24:55.260 : :Nailed To The Gun
00:28:32.644 : :Golgotha
00:33:01.312 : :Fire And Ice
00:36:05.630 : :Green Manalishi (With The Two-Pronged Crown)
00:39:22.793 : :Diamonds And Rust
00:42:53.971 : :Jawbreaker
00:46:36.727 : :Cyber World
00:49:50.754 : :Like There’s No Tomorrow
00:54:23.226 : :Thunder And Lightning
- -
Качество: BDRip 1080p
Формат: MKV
Видео кодек: H.26x
Аудио кодек: AC3
Видео: AVC, 13.9 Mbps, 1920x1080, 29.970 fps,0.223 bit/pix
Аудио: AC3 6 каналов Front: L C R, Side: L R, LFE, 448 Kbps, 48 kHz
-

Скриншоты

       
--

_________________
Other forum [Profile] [PM]
Display posts from previous:    
Reply to topic

The time now is: Today 18:35

All times are GMT + 3 Hours



You cannot post new topics in this forum
You cannot reply to topics in this forum
You cannot edit your posts in this forum
You cannot delete your posts in this forum
You cannot vote in polls in this forum
You cannot attach files in this forum
You cannot download files in this forum