Today is a free download without charge Download

Helloluxx.com | MILG11. Hard Surface Modelling Tactics for Cinema 4D (2016) PCRec [H.264] [RU/EN]

Reply to topic
 
Author
Message

}{@R0N ®

Longevity: 4 years 11 months

Posts: 7669

Торрент-статистика

Post 27-Dec-2018 21:34

[Quote]

Helloluxx.com | MILG11. Hard Surface Modelling Tactics for Cinema 4D- Автор (режиссер): Toby Pitman
Производство: Helloluxx.com
Жанр: 3D графика
Описание:
Техники Hard Surface моделирования в Cinema 4D
Из всего того, чему 3D художник может научиться, моделирование - это самый трудно-совершенствуемый навык. Пройдут часы, недели, месяцы, даже годы практики и ошибок, прежде чем вы перейдёте на такой уровень, который позволит вам дешифровать меш с первого взгляда. К тому же, найти подробные видеокурсы, затрагивающие больше чем пару техник, совсем нелегко, особенно если вы работаете в Cinema 4D.
Но с данным курсом у вас не возникнет таких проблем. Этот учебный курс - недостающее звено в процессе моделирования в Cinema 4D, и он разработан специально для художников, работающих в ней. Здесь вы узнаете всё - от базовых концепций моделирования до скрытых функций и особенностей важных инструментов для моделирования. Если вы всерьёз хотите научиться моделировать в Cinema 4D, то этот курс идеально вам подходит.
Также в этом курсе рассматривается концепция "EDGE FLOW" - техника быстрого и качественного (правильного) моделирования сложных 3D-объектов.
Продолжительность: 24:17:54
Качество видео: PCRec
Перевод: Дублированный (Nemecic)
Язык озвучки: Русский, Английский
Видео: AVC/H.264, 1440x810, ~730-900 Kbps
Аудио 1: AAC, 1 ch, 128 Kbps - Русский, дублированный (Nemecic)
Аудио 2: AAC, 1 ch, 133-216 Kbps - Английский, оригинал

Mediainfo:

General
Complete name : 01_010. Directing Flow.mp4
Format : MPEG-4
Format profile : Base Media
Codec ID : isom
File size : 134 MiB
Duration : 16mn 7s
Overall bit rate : 1 164 Kbps
Video
ID : 1
Format : AVC
Format/Info : Advanced Video Codec
Format profile : [url=mailto:Main@L4.0]Main@L4.0[/url]
Format settings, CABAC : Yes
Format settings, ReFrames : 5 frames
Codec ID : avc1
Codec ID/Info : Advanced Video Coding
Duration : 16mn 7s
Bit rate : 813 Kbps
Width : 1 440 pixels
Height : 810 pixels
Display aspect ratio : 16:9
Frame rate mode : Constant
Frame rate : 15.000 fps
Color space : YUV
Chroma subsampling : 4:2:0
Bit depth : 8 bits
Scan type : Progressive
Bits/(Pixel*Frame) : 0.046
Stream size : 93.8 MiB (70%)
Language : English
Audio #1
ID : 2
Format : AAC
Format/Info : Advanced Audio Codec
Format profile : LC
Codec ID : 40
Duration : 16mn 7s
Duration_LastFrame : 42ms
Bit rate mode : Constant
Bit rate : 128 Kbps
Channel(s) : 2 channels
Channel(s)_Original : 1 channel
Channel positions : Front: C
Sampling rate : 44.1 KHz
Compression mode : Lossy
Stream size : 14.8 MiB (11%)
Language : Russian
Audio #2
ID : 3
Format : AAC
Format/Info : Advanced Audio Codec
Format profile : LC
Codec ID : 40
Duration : 16mn 7s
Bit rate mode : Constant
Bit rate : 216 Kbps
Channel(s) : 2 channels
Channel(s)_Original : 1 channel
Channel positions : Front: C
Sampling rate : 44.1 KHz
Compression mode : Lossy
Stream size : 24.9 MiB (19%)
Language : English

Дополнительная информация:

Краткое содержание того, что вы узнаете в этом курсе:
Основы геометрии
Фундаментальные концепции геометрии, которые являются базисом для правильного моделирования.
Основы сабдивов
Разберёмся, что такое сабдивы и как они связаны с Hard-Surface моделированием.
Топология
Техники и тактики для воркфлоу в 2D, позволяющие упростить процесс 3D-моделирования.
Общие техники моделирования
Важнейшие концепции моделирования, стратегии и рабочие процессы.
Примеры моделирования
Интенсивная пошаговая инструкция для создания сложных и комплексных 3D-объектов "с нуля".
Бонусные видео
Небольшие советы и техники, плюс повторение изученного материала.
Примечание.
К сожалению, видео-дорожка содержит артефакт в уроке "06_050. Rifle Stock - part 3.mp4"
Файлы упражнений прилагаются к курсу.
Дополнительная информация на офсайте.
Как выбрать звуковую дорожку по умолчанию (ссылка).
Скриншоты:
       

Дополнительные скриншоты:

                       


Last edited by }{@R0N on 2020-10-13 08:17; edited 1 time in total
Other forum [Profile] [PM]

militarist

Longevity: 16 days

Posts: 1

Торрент-статистика

Post 13-Oct-2020 02:22 (after 1 year 9 months)

[Quote]

The torrent is corrupted. Can you upload it again?
Other forum [Profile] [PM]

}{@R0N ®

Longevity: 4 years 11 months

Posts: 7669

Торрент-статистика

Post 13-Oct-2020 08:17 (after 5 hours)

[Quote]

This is a Russian-language site. The file has been updated. Write in Russian otherwise you will be deactivated.
Это русскоязычный сайт. Файл обновлен. Пишите на русском языке иначе будете деактивированы.
Other forum [Profile] [PM]
Display posts from previous:    
Reply to topic

The time now is: Today 16:59

All times are GMT + 3 Hours



You cannot post new topics in this forum
You cannot reply to topics in this forum
You cannot edit your posts in this forum
You cannot delete your posts in this forum
You cannot vote in polls in this forum
You cannot attach files in this forum
You cannot download files in this forum