Today is a free download without charge Download

(Rock) Thirty (30) Seconds To Mars - 4 сингла - 2006-2010 (оригинал) ALAC, lossless

Reply to topic
 
Author
Message

Paullo ®

Gender:

Longevity: 9 years 5 months

Posts: 393

Location: деактивировано, причина: - Последний визит: 2017-06-22 darkos_bot 12.06.19г

Торрент-статистика

Post 11-Mar-2011 23:33

[Quote]

Thirty (30) Seconds To Mars - 4 сингла
Год: 2006-2010
Страна: USA
Жанр: Rock
Тип издания: оригинал
Продолжительность: 41.52
Тексты: вшиты
Кодек: ALAC
Программа-риповщик : iTunes (диск)
Битрейт: lossless
Треклист:

(2006) The Kill UK single

01."The Kill (Bury Me)" – 3:52
02."Attack" (live at CBGB, July 2006) – 4:06
03."The Kill (Bury Me)" (acoustic, live on VH1) – 3:48

Лог-отчёт EAC

Exact Audio Copy V1.0 beta 1 from 15. November 2010
EAC extraction logfile from 7. March 2011, 21:42
30 Seconds To Mars / The Kill
Used drive : _NEC DVD_RW ND-3570A Adapter: 1 ID: 0
Read mode : SecureUtilize accurate stream : YesDefeat audio cache : YesMake use of C2 pointers : No
Read offset correction : 48Overread into Lead-In and Lead-Out : NoFill up missing offset samples with silence : YesDelete leading and trailing silent blocks : NoNull samples used in CRC calculations : YesUsed interface : Native Win32 interface for Win NT & 2000Gap handling : Appended to previous track
Performing a test extraction only
TOC of the extracted CD
Track | Start | Length | Start sector | End sector --------------------------------------------------------- 1 | 0:00.00 | 3:53.37 | 0 | 17511 2 | 3:53.37 | 4:06.23 | 17512 | 35984 3 | 7:59.60 | 3:48.20 | 35985 | 53104
Track 1
Filename C:\Users\Вова\Documents\01 – The Kill.wav
Pre-gap length 0:00:02.00
Peak level 98.7 % Extraction speed 2.4 X Track quality 100.0 % Test CRC 08769402 Copy OK
Track 2
Filename C:\Users\Вова\Documents\02 – Attack (Live).wav
Pre-gap length 0:00:01.47
Peak level 95.9 % Extraction speed 2.5 X Track quality 100.0 % Test CRC 467CB9CC Copy OK
Track 3
Filename C:\Users\Вова\Documents\03 – The Kill (Live Acoustic).wav
Pre-gap length 0:00:01.48
Peak level 84.0 % Extraction speed 2.5 X Track quality 100.0 % Test CRC D87A5C59 Copy OK
No errors occurred
End of status report

(2006) From Yesterday

01."From Yesterday" (radio edit) – 3:52
02."The Story" (Live @ AOL Sessions Undercover) – 3:59

Лог-отчёт EAC

Exact Audio Copy V1.0 beta 1 from 15. November 2010
EAC extraction logfile from 7. March 2011, 21:25
30 Seconds To Mars / From Yesterday
Used drive : _NEC DVD_RW ND-3570A Adapter: 1 ID: 0
Read mode : SecureUtilize accurate stream : YesDefeat audio cache : YesMake use of C2 pointers : No
Read offset correction : 48Overread into Lead-In and Lead-Out : NoFill up missing offset samples with silence : YesDelete leading and trailing silent blocks : NoNull samples used in CRC calculations : YesUsed interface : Native Win32 interface for Win NT & 2000Gap handling : Appended to previous track
Performing a test extraction only
TOC of the extracted CD
Track | Start | Length | Start sector | End sector --------------------------------------------------------- 1 | 0:00.00 | 3:53.65 | 0 | 17539 2 | 3:53.65 | 4:00.49 | 17540 | 35588
Track 1
Filename C:\Users\Вова\Documents\01 – From Yesterday.wav
Pre-gap length 0:00:02.00
Peak level 99.7 % Extraction speed 2.4 X Track quality 100.0 % Test CRC A6ACC4CC Copy OK
Track 2
Filename C:\Users\Вова\Documents\02 – The Story (Live).wav
Pre-gap length 0:00:01.00
Peak level 90.8 % Extraction speed 2.4 X Track quality 100.0 % Test CRC 4E85A6AE Copy OK
No errors occurred
End of status report

(2009) Kings And Queens EU CD single

01."Kings and Queens" (Album Version) – 5:47
02."Kings and Queens" (Radio Edit) – 5:05

Лог-отчёт EAC

Exact Audio Copy V1.0 beta 1 from 15. November 2010
EAC extraction logfile from 7. March 2011, 20:51
30 Seconds To Mars / Kings And Queens
Used drive : _NEC DVD_RW ND-3570A Adapter: 1 ID: 0
Read mode : SecureUtilize accurate stream : YesDefeat audio cache : YesMake use of C2 pointers : No
Read offset correction : 48Overread into Lead-In and Lead-Out : NoFill up missing offset samples with silence : YesDelete leading and trailing silent blocks : NoNull samples used in CRC calculations : YesUsed interface : Native Win32 interface for Win NT & 2000Gap handling : Appended to previous track
Performing a test extraction only
TOC of the extracted CD
Track | Start | Length | Start sector | End sector --------------------------------------------------------- 1 | 0:00.00 | 5:48.24 | 0 | 26123 2 | 5:48.24 | 5:05.46 | 26124 | 49044
Track 1
Filename C:\Users\Вова\Documents\01 – Kings And Queens (Album Version).wav
Pre-gap length 0:00:02.00
Peak level 98.7 % Extraction speed 2.2 X Track quality 99.9 % Test CRC DE6E09A0 Copy OK
Track 2
Filename C:\Users\Вова\Documents\02 – Kings Anq Queens (Radio Edit).wav
Pre-gap length 0:00:00.40
Peak level 99.8 % Extraction speed 2.4 X Track quality 100.0 % Test CRC 3D758D40 Copy OK
No errors occurred
End of status report

(2010) This Is War EU CD Single

01."This Is War" (album version) – 5:27
02."Hurricane" (LA Mix) – 5:49

Лог-отчёт EAC

Exact Audio Copy V1.0 beta 1 from 15. November 2010
EAC extraction logfile from 7. March 2011, 21:08
30 Seconds To Mars / This Is War
Used drive : _NEC DVD_RW ND-3570A Adapter: 1 ID: 0
Read mode : SecureUtilize accurate stream : YesDefeat audio cache : YesMake use of C2 pointers : No
Read offset correction : 48Overread into Lead-In and Lead-Out : NoFill up missing offset samples with silence : YesDelete leading and trailing silent blocks : NoNull samples used in CRC calculations : YesUsed interface : Native Win32 interface for Win NT & 2000Gap handling : Appended to previous track
Performing a test extraction only
TOC of the extracted CD
Track | Start | Length | Start sector | End sector --------------------------------------------------------- 1 | 0:00.00 | 5:29.12 | 0 | 24686 2 | 5:29.12 | 5:48.10 | 24687 | 50796
Track 1
Filename C:\Users\Вова\Documents\01 – This Is War (Album version).wav
Pre-gap length 0:00:02.00
Peak level 98.7 % Extraction speed 2.4 X Track quality 100.0 % Test CRC 6EA0FCA2 Copy OK
Track 2
Filename C:\Users\Вова\Documents\02 – Hurricane (LA Mix).wav
Pre-gap length 0:00:01.00
Peak level 99.6 % Extraction speed 2.3 X Track quality 100.0 % Test CRC 68028EDF Copy OK
No errors occurred
End of status report
Доп. информация: 30 Seconds to Mars is an American rock band from Los Angeles, formed in 1998. Since 2007, the band has been composed of actor Jared Leto (lead vocals, rhythm guitar, songwriter), Shannon Leto (drums, percussion) and Tomo Miličević (lead guitar, keyboards). Following the departure of Matt Wachter (now of Angels & Airwaves) in 2007, Tim Kelleher became the bassist for the group, performing live only with both Jared and Miličević recording bass for studio recordings, while Braxton Olita (keyboards) was added to the touring lineup in 2009. Previously, the group also featured guitarists Solon Bixler (now of Great Northern) and Kevin Drake.

Скриншоты


_________________
сами мы не местные...
Other forum [Profile] [PM]
Display posts from previous:    
Reply to topic

The time now is: Today 08:54

All times are GMT + 3 Hours



You cannot post new topics in this forum
You cannot reply to topics in this forum
You cannot edit your posts in this forum
You cannot delete your posts in this forum
You cannot vote in polls in this forum
You cannot attach files in this forum
You cannot download files in this forum