Сегодня идет свободное скачивание без начисления Download

Верочка на доп. занятиях / Collegues DP Schoolgirl Costumed Veronica (N/A / 21Sextury) [2016 г., Gonzo, Anal Sex, Hardcore, SiteRip] (Veronica Morre)

Ответить на тему
 
Автор
Сообщение

XP1971 ®

Пол:

Стаж: 4 года 9 месяцев

Сообщений: 5293

Торрент-статистика

Пост 04-Июл-2017 20:51

[Цитировать]

-Верочка на доп. занятиях

Collegues DP Schoolgirl Costumed Veronica
-- Страна: USA
Режиссер: N/A
Студия: 21Sextury
Год выпуска: 2016 г.
Перевод: Отсутствует
Продолжительность: 00:27:25
Жанр: Gonzo, Anal Sex, Hardcore
Оригинальный аудиопоток: английский-В ролях:
Veronica Morre-Оригинальное описание:
In this, my 800th distribution will be discussed about the girl She is, whose thirst for extra classes in College brought to sin. Well and good)-Описание на русском:
В этой раздаче пойдёт речь о девушке Вероничке, чья тяга к дополнительным занятиям в колледже довели до греха. Ну и славненько)- by Дядя Витя
Контейнер: MP4
Аудио кодек: AAC
Видео кодек: AVC
Cубтитры: отсутствуют
Качество видео: SiteRip
Аудио: Advanced Audio | 48.0 KHz | 2 ch | 320.0 Kbps
Видео: Adv. Video | 1920х1080 | 7757 Kbps | 29.97 fps | 0.125 bit/pixel

Media Info

Код:
Общее
Полное имя : Veronica Morre.mp4
Формат : MPEG-4
Профиль формата : Base Media
Идентификатор кодека : isom
Размер файла : 416 Мбайт
Продолжительность : 27 м.
Общий поток : 2120 Кбит/сек
Программа кодирования : Lavf54.63.104
Видео
Идентификатор : 1
Формат : AVC
Формат/Информация : Advanced Video Codec
Профиль формата : [email protected]/*  */
Параметр CABAC формата : Да
Параметр ReFrames формата : 4 кадра
Идентификатор кодека : avc1
Идентификатор кодека/Информация : Advanced Video Coding
Продолжительность : 27 м.
Битрейт : 2000 Кбит/сек
Ширина : 960 пикселей
Высота : 540 пикселей
Соотношение сторон : 16:9
Режим частоты кадров : Постоянный
Частота кадров : 25,000 кадров/сек
Цветовое пространство : YUV
Субдискретизация насыщенности : 4:2:0
Битовая глубина : 8 бит
Тип развёртки : Прогрессивная
Бит/(Пиксели*Кадры) : 0.154
Размер потока : 389 Мбайт (94%)
Библиотека кодирования : x264 core 120
Настройки программы : cabac=1 / ref=3 / deblock=1:0:0 / analyse=0x3:0x113 / me=hex / subme=6 / psy=1 / psy_rd=1.00:0.00 / mixed_ref=1 / me_range=16 / chroma_me=1 / trellis=2 / 8x8dct=1 / cqm=0 / deadzone=21,11 / fast_pskip=1 / chroma_qp_offset=-2 / threads=12 / sliced_threads=0 / nr=0 / decimate=1 / interlaced=0 / bluray_compat=0 / constrained_intra=0 / bframes=3 / b_pyramid=2 / b_adapt=2 / b_bias=0 / direct=1 / weightb=1 / open_gop=0 / weightp=2 / keyint=60 / keyint_min=25 / scenecut=40 / intra_refresh=0 / rc_lookahead=40 / rc=abr / mbtree=1 / bitrate=2000 / ratetol=1.0 / qcomp=0.60 / qpmin=0 / qpmax=69 / qpstep=4 / ip_ratio=1.41 / aq=1:1.00
Язык : English
Аудио
Идентификатор : 2
Формат : AAC
Формат/Информация : Advanced Audio Codec
Профиль формата : LC
Идентификатор кодека : 40
Продолжительность : 27 м.
Duration_LastFrame : -8 мс.
Вид битрейта : Постоянный
Битрейт : 128 Кбит/сек
Каналы : 2 канала
Расположение каналов : Front: L R
Частота : 44,1 КГц
Метод сжатия : С потерями
Размер потока : 25,1 Мбайт (6%)
Язык : English

Скринлист

Скриншоты

                       

_________________
Вне форума [Профиль] [ЛС]
Показать сообщения:    
Ответить на тему

Текущее время: Сегодня 12:57

Часовой пояс: GMT + 3



Вы не можете начинать темы
Вы не можете отвечать на сообщения
Вы не можете редактировать свои сообщения
Вы не можете удалять свои сообщения
Вы не можете голосовать в опросах
Вы не можете прикреплять файлы к сообщениям
Вы не можете скачивать файлы