Сегодня идет свободное скачивание без начисления Download

Молодые Буквоежки 2 / Naughty Bookworms 2 (Brazzers) [2017 г., Big Boobs, Dogging, Hardcore, WEB-DL, 480p] (Dillion Carter, Eva Notty, Lily Love, Kendra Lust, Lily Love, Monique Alexander, Nina Elle)

Ответить на тему
 
Автор
Сообщение

XP1971 ®

Пол:

Стаж: 4 года 9 месяцев

Сообщений: 5308

Торрент-статистика

Пост 02-Апр-2017 18:38

[Цитировать]

-Молодые Буквоежки 2

Naughty Bookworms 2
-- Страна: USA
Режиссер: N/A
Студия: Brazzers
Год выпуска: 2017 г.
Перевод: Отсутствует
Продолжительность: 03:29:28
Жанр: Big Boobs, Dogging, Hardcore
Оригинальный аудиопоток: английский-В ролях:
Dillion Carter, Eva Notty, Lily Love, Kendra Lust, Lily Love, Monique Alexander, Nina Elle-Оригинальное описание:
It was just pure luck that Xander Corvus got the inside scoop of how the librarian Kendra's Lust passes the time during her shifts. After discovering Kendra with her legs spread and a vibrator humming away on her clit, Xander decided to dive in there with his tongue and help out. Xander ate that pussy like a starving man, licking her hole and clit, and then thrusting in and out with the vibrator. When they had to stop, that Milf Kendra followed Xander to the shelves, to throw the whole of his cock down her throat. Did anyone in the library overhear Kendra moaning with pleasure as Xander pounded her, or the sound of his balls tapping against her ass with every thrust? Check this wicked public sex scene to find out!-Описание на русском:
Весьма утомительно заниматься в библиотеке тем, зачем туда приходят нормальные люди. Гораздо приятнее некоторым некультурным и невоспитанным особям оторваться душевненько на теме секса где-нить между полок с запылёнными фолиантами. Встать рачком стянув трусы для усвоения материала, соснуть с оттягом для закрепления пройденного и так далее. Ходите в библиотеки, ребята.-
Контейнер: MP4
Аудио кодек: AAC
Видео кодек: AVC
Cубтитры: отсутствуют
Качество видео: WEB-DL
Стандарт разрешения: 480p
Аудио: Advanced Audio | 48.0 KHz | 2 ch | 127.0 Kbps
Видео: AVCodec | 854х480 | 1000 Кbps | 29.97 fps | 0.081 bit/pixel

Media Info

Scene 1

Код:
Общее
Полное имя : Naughty Bookworms 2_[....]\Dillion Carter.mp4
Формат : MPEG-4
Профиль формата : Base Media
Идентификатор кодека : isom (isom/iso2/avc1/mp41)
Размер файла : 309 Мбайт
Продолжительность : 36 м. 44 с.
Общий поток : 1176 Кбит/сек
Программа кодирования : Lavf55.1.100
Видео
Идентификатор : 1
Формат : AVC
Формат/Информация : Advanced Video Codec
Профиль формата : [email protected]/*  */
Параметр CABAC формата : Да
Параметр ReFrames формата : 5 кадров
Идентификатор кодека : avc1
Идентификатор кодека/Информация : Advanced Video Coding
Продолжительность : 36 м. 28 с.
Битрейт : 1000 Кбит/сек
Ширина : 854 пикселя
Высота : 480 пикселей
Соотношение сторон : 16:9
Режим частоты кадров : Постоянный
Частота кадров : 29,970 (29970/1000) кадров/сек
Цветовое пространство : YUV
Субдискретизация насыщенности : 4:2:0
Битовая глубина : 8 бит
Тип развёртки : Прогрессивная
Бит/(Пиксели*Кадры) : 0.081
Размер потока : 259 Мбайт (84%)
Библиотека кодирования : x264 core 130 r2274 c832fe9
Настройки программы : cabac=1 / ref=5 / deblock=1:0:0 / analyse=0x3:0x113 / me=umh / subme=8 / psy=1 / psy_rd=1.00:0.00 / mixed_ref=1 / me_range=16 / chroma_me=1 / trellis=1 / 8x8dct=1 / cqm=0 / deadzone=21,11 / fast_pskip=1 / chroma_qp_offset=-2 / threads=36 / lookahead_threads=3 / sliced_threads=0 / nr=0 / decimate=1 / interlaced=0 / bluray_compat=0 / constrained_intra=0 / bframes=3 / b_pyramid=2 / b_adapt=2 / b_bias=0 / direct=3 / weightb=1 / open_gop=0 / weightp=2 / keyint=60 / keyint_min=6 / scenecut=40 / intra_refresh=0 / rc_lookahead=50 / rc=abr / mbtree=1 / bitrate=1000 / ratetol=1.0 / qcomp=0.60 / qpmin=0 / qpmax=69 / qpstep=4 / ip_ratio=1.40 / aq=1:1.00
Дата пометки : UTC 2014-12-21 14:18:37
Аудио
Идентификатор : 2
Формат : AAC
Формат/Информация : Advanced Audio Codec
Профиль формата : LC
Идентификатор кодека : 40
Продолжительность : 36 м. 44 с.
Duration_LastFrame : 15 с. 564 мс.
Вид битрейта : Постоянный
Битрейт : 127 Кбит/сек
Каналы : 2 канала
Расположение каналов : Front: L R
Частота : 48,0 КГц
Частота кадров : 46,875 кадров/сек (1024 spf)
Метод сжатия : С потерями
Размер потока : 33,4 Мбайт (11%)
Default : Да
AlternateGroup/String : 1
Дата пометки : UTC 2014-12-21 14:18:37
Прочее #1
Идентификатор : 65536
Тип : Hint
Формат : RTP
Идентификатор кодека : rtp
Продолжительность : 36 м. 28 с.
Дата кодирования : UTC 2014-12-21 14:18:33
Дата пометки : UTC 2014-12-21 14:18:37
Прочее #2
Идентификатор : 65537
Тип : Hint
Формат : RTP
Идентификатор кодека : rtp
Продолжительность : 36 м. 29 с.
Дата кодирования : UTC 2014-12-21 14:18:35
Дата пометки : UTC 2014-12-21 14:18:37
Вид битрейта : VBR

Scene 2

Код:
Общее
Полное имя : Naughty Bookworms 2_[/*spam*/]\Eva Notty, Lily Love.mp4
Формат : MPEG-4
Профиль формата : Base Media
Идентификатор кодека : isom (isom/iso2/avc1/mp41)
Размер файла : 309 Мбайт
Продолжительность : 36 м. 24 с.
Общий поток : 1187 Кбит/сек
Программа кодирования : Lavf55.1.100
Видео
Идентификатор : 1
Формат : AVC
Формат/Информация : Advanced Video Codec
Профиль формата : [email protected]/*  */
Параметр CABAC формата : Да
Параметр ReFrames формата : 5 кадров
Идентификатор кодека : avc1
Идентификатор кодека/Информация : Advanced Video Coding
Продолжительность : 36 м. 20 с.
Битрейт : 1000 Кбит/сек
Ширина : 854 пикселя
Высота : 480 пикселей
Соотношение сторон : 16:9
Режим частоты кадров : Постоянный
Частота кадров : 29,970 (29970/1000) кадров/сек
Цветовое пространство : YUV
Субдискретизация насыщенности : 4:2:0
Битовая глубина : 8 бит
Тип развёртки : Прогрессивная
Бит/(Пиксели*Кадры) : 0.081
Размер потока : 260 Мбайт (84%)
Библиотека кодирования : x264 core 130 r2274 c832fe9
Настройки программы : cabac=1 / ref=5 / deblock=1:0:0 / analyse=0x3:0x113 / me=umh / subme=8 / psy=1 / psy_rd=1.00:0.00 / mixed_ref=1 / me_range=16 / chroma_me=1 / trellis=1 / 8x8dct=1 / cqm=0 / deadzone=21,11 / fast_pskip=1 / chroma_qp_offset=-2 / threads=36 / lookahead_threads=3 / sliced_threads=0 / nr=0 / decimate=1 / interlaced=0 / bluray_compat=0 / constrained_intra=0 / bframes=3 / b_pyramid=2 / b_adapt=2 / b_bias=0 / direct=3 / weightb=1 / open_gop=0 / weightp=2 / keyint=60 / keyint_min=6 / scenecut=40 / intra_refresh=0 / rc_lookahead=50 / rc=abr / mbtree=1 / bitrate=1000 / ratetol=1.0 / qcomp=0.60 / qpmin=0 / qpmax=69 / qpstep=4 / ip_ratio=1.40 / aq=1:1.00
Язык : English
Дата пометки : UTC 2015-02-19 02:08:24
Аудио
Идентификатор : 2
Формат : AAC
Формат/Информация : Advanced Audio Codec
Профиль формата : LC
Идентификатор кодека : 40
Продолжительность : 36 м. 24 с.
Duration_LastFrame : 4 с. 87 мс.
Вид битрейта : Постоянный
Битрейт : 128 Кбит/сек
Каналы : 2 канала
Расположение каналов : Front: L R
Частота : 48,0 КГц
Частота кадров : 46,875 кадров/сек (1024 spf)
Метод сжатия : С потерями
Размер потока : 33,3 Мбайт (11%)
Язык : English
Default : Да
AlternateGroup/String : 1
Дата пометки : UTC 2015-02-19 02:08:24
Прочее #1
Идентификатор : 65536
Тип : Hint
Формат : RTP
Идентификатор кодека : rtp
Продолжительность : 36 м. 20 с.
Дата кодирования : UTC 2015-02-19 02:08:17
Дата пометки : UTC 2015-02-19 02:08:24
Прочее #2
Идентификатор : 65537
Тип : Hint
Формат : RTP
Идентификатор кодека : rtp
Продолжительность : 36 м. 20 с.
Дата кодирования : UTC 2015-02-19 02:08:21
Дата пометки : UTC 2015-02-19 02:08:24
Вид битрейта : VBR

Scene 3

Код:
Общее
Полное имя : Naughty Bookworms 2_[/*spam*/]\Kendra Lust.mp4
Формат : MPEG-4
Профиль формата : Base Media
Идентификатор кодека : isom (isom/iso2/avc1/mp41)
Размер файла : 337 Мбайт
Продолжительность : 39 м. 28 с.
Общий поток : 1192 Кбит/сек
Программа кодирования : Lavf55.1.100
Видео
Идентификатор : 1
Формат : AVC
Формат/Информация : Advanced Video Codec
Профиль формата : [email protected]/*  */
Параметр CABAC формата : Да
Параметр ReFrames формата : 5 кадров
Идентификатор кодека : avc1
Идентификатор кодека/Информация : Advanced Video Coding
Продолжительность : 39 м. 24 с.
Битрейт : 1000 Кбит/сек
Ширина : 854 пикселя
Высота : 480 пикселей
Соотношение сторон : 16:9
Режим частоты кадров : Постоянный
Частота кадров : 29,970 (29970/1000) кадров/сек
Цветовое пространство : YUV
Субдискретизация насыщенности : 4:2:0
Битовая глубина : 8 бит
Тип развёртки : Прогрессивная
Бит/(Пиксели*Кадры) : 0.081
Размер потока : 283 Мбайт (84%)
Библиотека кодирования : x264 core 130 r2274 c832fe9
Настройки программы : cabac=1 / ref=5 / deblock=1:0:0 / analyse=0x3:0x113 / me=umh / subme=8 / psy=1 / psy_rd=1.00:0.00 / mixed_ref=1 / me_range=16 / chroma_me=1 / trellis=1 / 8x8dct=1 / cqm=0 / deadzone=21,11 / fast_pskip=1 / chroma_qp_offset=-2 / threads=36 / lookahead_threads=3 / sliced_threads=0 / nr=0 / decimate=1 / interlaced=0 / bluray_compat=0 / constrained_intra=0 / bframes=3 / b_pyramid=2 / b_adapt=2 / b_bias=0 / direct=3 / weightb=1 / open_gop=0 / weightp=2 / keyint=60 / keyint_min=6 / scenecut=40 / intra_refresh=0 / rc_lookahead=50 / rc=abr / mbtree=1 / bitrate=1000 / ratetol=1.0 / qcomp=0.60 / qpmin=0 / qpmax=69 / qpstep=4 / ip_ratio=1.40 / aq=1:1.00
Язык : English
Дата пометки : UTC 2015-02-24 06:02:32
Аудио
Идентификатор : 2
Формат : AAC
Формат/Информация : Advanced Audio Codec
Профиль формата : LC
Идентификатор кодека : 40
Продолжительность : 39 м. 28 с.
Duration_LastFrame : 4 с. 87 мс.
Вид битрейта : Постоянный
Битрейт : 128 Кбит/сек
Каналы : 2 канала
Расположение каналов : Front: L R
Частота : 48,0 КГц
Частота кадров : 46,875 кадров/сек (1024 spf)
Метод сжатия : С потерями
Размер потока : 36,1 Мбайт (11%)
Язык : English
Default : Да
AlternateGroup/String : 1
Дата пометки : UTC 2015-02-24 06:02:32
Прочее #1
Идентификатор : 65536
Тип : Hint
Формат : RTP
Идентификатор кодека : rtp
Продолжительность : 39 м. 24 с.
Дата кодирования : UTC 2015-02-24 06:02:28
Дата пометки : UTC 2015-02-24 06:02:32
Прочее #2
Идентификатор : 65537
Тип : Hint
Формат : RTP
Идентификатор кодека : rtp
Продолжительность : 39 м. 24 с.
Дата кодирования : UTC 2015-02-24 06:02:30
Дата пометки : UTC 2015-02-24 06:02:32
Вид битрейта : VBR

Scene 4

Код:
Общее
Полное имя : Naughty Bookworms 2_[/*spam*/]\Lily Love.mp4
Формат : MPEG-4
Профиль формата : Base Media
Идентификатор кодека : isom (isom/iso2/avc1/mp41)
Размер файла : 279 Мбайт
Продолжительность : 32 м. 51 с.
Общий поток : 1187 Кбит/сек
Программа кодирования : Lavf54.37.100
Видео
Идентификатор : 1
Формат : AVC
Формат/Информация : Advanced Video Codec
Профиль формата : [email protected]/*  */
Параметр CABAC формата : Да
Параметр ReFrames формата : 5 кадров
Идентификатор кодека : avc1
Идентификатор кодека/Информация : Advanced Video Coding
Продолжительность : 32 м. 51 с.
Битрейт : 1000 Кбит/сек
Ширина : 854 пикселя
Высота : 480 пикселей
Соотношение сторон : 16:9
Режим частоты кадров : Постоянный
Частота кадров : 29,970 (29970/1000) кадров/сек
Цветовое пространство : YUV
Субдискретизация насыщенности : 4:2:0
Битовая глубина : 8 бит
Тип развёртки : Прогрессивная
Бит/(Пиксели*Кадры) : 0.081
Размер потока : 234 Мбайт (84%)
Библиотека кодирования : x264 core 128 r2216 198a7ea
Настройки программы : cabac=1 / ref=5 / deblock=1:0:0 / analyse=0x3:0x113 / me=umh / subme=8 / psy=1 / psy_rd=1.00:0.00 / mixed_ref=1 / me_range=16 / chroma_me=1 / trellis=1 / 8x8dct=1 / cqm=0 / deadzone=21,11 / fast_pskip=1 / chroma_qp_offset=-2 / threads=36 / lookahead_threads=6 / sliced_threads=0 / nr=0 / decimate=1 / interlaced=0 / bluray_compat=0 / constrained_intra=0 / bframes=3 / b_pyramid=2 / b_adapt=2 / b_bias=0 / direct=3 / weightb=1 / open_gop=0 / weightp=2 / keyint=60 / keyint_min=6 / scenecut=40 / intra_refresh=0 / rc_lookahead=50 / rc=abr / mbtree=1 / bitrate=1000 / ratetol=1.0 / qcomp=0.60 / qpmin=0 / qpmax=69 / qpstep=4 / ip_ratio=1.40 / aq=1:1.00
Дата пометки : UTC 2015-01-27 09:12:11
Аудио
Идентификатор : 2
Формат : AAC
Формат/Информация : Advanced Audio Codec
Профиль формата : LC
Идентификатор кодека : 40
Продолжительность : 32 м. 51 с.
Duration_LastFrame : 33 мс.
Вид битрейта : Постоянный
Битрейт : 128 Кбит/сек
Каналы : 2 канала
Расположение каналов : Front: L R
Частота : 48,0 КГц
Частота кадров : 46,875 кадров/сек (1024 spf)
Метод сжатия : С потерями
Размер потока : 30,1 Мбайт (11%)
Default : Да
AlternateGroup/String : 1
Дата пометки : UTC 2015-01-27 09:12:11
Прочее #1
Идентификатор : 65536
Тип : Hint
Формат : RTP
Идентификатор кодека : rtp
Продолжительность : 32 м. 51 с.
Дата кодирования : UTC 2015-01-27 09:11:46
Дата пометки : UTC 2015-01-27 09:12:11
Прочее #2
Идентификатор : 65537
Тип : Hint
Формат : RTP
Идентификатор кодека : rtp
Продолжительность : 32 м. 51 с.
Дата кодирования : UTC 2015-01-27 09:12:09
Дата пометки : UTC 2015-01-27 09:12:11
Вид битрейта : VBR

Scene 5

Код:
Общее
Полное имя : Naughty Bookworms 2_[/*spam*/]\Monique Alexander.mp4
Формат : MPEG-4
Профиль формата : Base Media
Идентификатор кодека : isom (isom/iso2/avc1/mp41)
Размер файла : 287 Мбайт
Продолжительность : 33 м. 48 с.
Общий поток : 1185 Кбит/сек
Программа кодирования : Lavf55.1.100
Видео
Идентификатор : 1
Формат : AVC
Формат/Информация : Advanced Video Codec
Профиль формата : [email protected]/*  */
Параметр CABAC формата : Да
Параметр ReFrames формата : 5 кадров
Идентификатор кодека : avc1
Идентификатор кодека/Информация : Advanced Video Coding
Продолжительность : 33 м. 48 с.
Битрейт : 1000 Кбит/сек
Ширина : 854 пикселя
Высота : 480 пикселей
Соотношение сторон : 16:9
Режим частоты кадров : Постоянный
Частота кадров : 29,970 (29970/1000) кадров/сек
Цветовое пространство : YUV
Субдискретизация насыщенности : 4:2:0
Битовая глубина : 8 бит
Тип развёртки : Прогрессивная
Бит/(Пиксели*Кадры) : 0.081
Размер потока : 240 Мбайт (84%)
Библиотека кодирования : x264 core 130 r2274 c832fe9
Настройки программы : cabac=1 / ref=5 / deblock=1:0:0 / analyse=0x3:0x113 / me=umh / subme=8 / psy=1 / psy_rd=1.00:0.00 / mixed_ref=1 / me_range=16 / chroma_me=1 / trellis=1 / 8x8dct=1 / cqm=0 / deadzone=21,11 / fast_pskip=1 / chroma_qp_offset=-2 / threads=36 / lookahead_threads=3 / sliced_threads=0 / nr=0 / decimate=1 / interlaced=0 / bluray_compat=0 / constrained_intra=0 / bframes=3 / b_pyramid=2 / b_adapt=2 / b_bias=0 / direct=3 / weightb=1 / open_gop=0 / weightp=2 / keyint=60 / keyint_min=6 / scenecut=40 / intra_refresh=0 / rc_lookahead=50 / rc=abr / mbtree=1 / bitrate=1000 / ratetol=1.0 / qcomp=0.60 / qpmin=0 / qpmax=69 / qpstep=4 / ip_ratio=1.40 / aq=1:1.00
Язык : English
Дата пометки : UTC 2015-11-07 06:11:50
Аудио
Идентификатор : 2
Формат : AAC
Формат/Информация : Advanced Audio Codec
Профиль формата : LC
Идентификатор кодека : 40
Продолжительность : 33 м. 48 с.
Duration_LastFrame : 33 мс.
Вид битрейта : Постоянный
Битрейт : 128 Кбит/сек
Каналы : 2 канала
Расположение каналов : Front: L R
Частота : 48,0 КГц
Частота кадров : 46,875 кадров/сек (1024 spf)
Метод сжатия : С потерями
Размер потока : 31,0 Мбайт (11%)
Язык : English
Default : Да
AlternateGroup/String : 1
Дата пометки : UTC 2015-11-07 06:11:50
Прочее #1
Идентификатор : 65536
Тип : Hint
Формат : RTP
Идентификатор кодека : rtp
Продолжительность : 33 м. 48 с.
Дата кодирования : UTC 2015-11-07 06:11:47
Дата пометки : UTC 2015-11-07 06:11:50
Прочее #2
Идентификатор : 65537
Тип : Hint
Формат : RTP
Идентификатор кодека : rtp
Продолжительность : 33 м. 48 с.
Дата кодирования : UTC 2015-11-07 06:11:49
Дата пометки : UTC 2015-11-07 06:11:50
Вид битрейта : VBR

Scene 6

Код:
Общее
Полное имя : Naughty Bookworms 2_[/*spam*/]\Nina Elle.mp4
Формат : MPEG-4
Профиль формата : Base Media
Идентификатор кодека : isom (isom/iso2/avc1/mp41)
Размер файла : 268 Мбайт
Продолжительность : 31 м. 30 с.
Общий поток : 1191 Кбит/сек
Программа кодирования : Lavf54.37.100
Видео
Идентификатор : 1
Формат : AVC
Формат/Информация : Advanced Video Codec
Профиль формата : [email protected]/*  */
Параметр CABAC формата : Да
Параметр ReFrames формата : 5 кадров
Идентификатор кодека : avc1
Идентификатор кодека/Информация : Advanced Video Coding
Продолжительность : 31 м. 30 с.
Битрейт : 1000 Кбит/сек
Ширина : 854 пикселя
Высота : 480 пикселей
Соотношение сторон : 16:9
Режим частоты кадров : Постоянный
Частота кадров : 29,970 (29970/1000) кадров/сек
Цветовое пространство : YUV
Субдискретизация насыщенности : 4:2:0
Битовая глубина : 8 бит
Тип развёртки : Прогрессивная
Бит/(Пиксели*Кадры) : 0.081
Размер потока : 225 Мбайт (84%)
Библиотека кодирования : x264 core 128 r2216 198a7ea
Настройки программы : cabac=1 / ref=5 / deblock=1:0:0 / analyse=0x3:0x113 / me=umh / subme=8 / psy=1 / psy_rd=1.00:0.00 / mixed_ref=1 / me_range=16 / chroma_me=1 / trellis=1 / 8x8dct=1 / cqm=0 / deadzone=21,11 / fast_pskip=1 / chroma_qp_offset=-2 / threads=36 / lookahead_threads=6 / sliced_threads=0 / nr=0 / decimate=1 / interlaced=0 / bluray_compat=0 / constrained_intra=0 / bframes=3 / b_pyramid=2 / b_adapt=2 / b_bias=0 / direct=3 / weightb=1 / open_gop=0 / weightp=2 / keyint=60 / keyint_min=6 / scenecut=40 / intra_refresh=0 / rc_lookahead=50 / rc=abr / mbtree=1 / bitrate=1000 / ratetol=1.0 / qcomp=0.60 / qpmin=0 / qpmax=69 / qpstep=4 / ip_ratio=1.40 / aq=1:1.00
Дата пометки : UTC 2015-01-23 09:01:27
Аудио
Идентификатор : 2
Формат : AAC
Формат/Информация : Advanced Audio Codec
Профиль формата : LC
Идентификатор кодека : 40
Продолжительность : 31 м. 30 с.
Duration_LastFrame : 33 мс.
Вид битрейта : Постоянный
Битрейт : 128 Кбит/сек
Каналы : 2 канала
Расположение каналов : Front: L R
Частота : 48,0 КГц
Частота кадров : 46,875 кадров/сек (1024 spf)
Метод сжатия : С потерями
Размер потока : 28,8 Мбайт (11%)
Default : Да
AlternateGroup/String : 1
Дата пометки : UTC 2015-01-23 09:01:27
Прочее #1
Идентификатор : 65536
Тип : Hint
Формат : RTP
Идентификатор кодека : rtp
Продолжительность : 31 м. 30 с.
Дата кодирования : UTC 2015-01-23 09:01:02
Дата пометки : UTC 2015-01-23 09:01:27
Прочее #2
Идентификатор : 65537
Тип : Hint
Формат : RTP
Идентификатор кодека : rtp
Продолжительность : 31 м. 30 с.
Дата кодирования : UTC 2015-01-23 09:01:25
Дата пометки : UTC 2015-01-23 09:01:27
Вид битрейта : VBR

Скринлист

Scene 1

Scene 2

Scene 3

Scene 4

Scene 5

Scene 6

Скриншоты

                                               

_________________
Вне форума [Профиль] [ЛС]
Похожие темы
Форум Тема Автор Торрент Отв. Посл. сообщение
./templates/default/images/folder_dl.gif Медицина и Здоровье Билл Гиффорд | Стареть не обязательно! Будь вечно молодым, или Сделай для этого всё возможное (2016) [FB2, DOCX] O.S.A.
1 | 0

0 | 363

4

2016-03-06 17:41
O.S.A. Последнее
Показать сообщения:    
Ответить на тему

Текущее время: Сегодня 17:31

Часовой пояс: GMT + 3



Вы не можете начинать темы
Вы не можете отвечать на сообщения
Вы не можете редактировать свои сообщения
Вы не можете удалять свои сообщения
Вы не можете голосовать в опросах
Вы не можете прикреплять файлы к сообщениям
Вы не можете скачивать файлы