Today is a free download without charge Download

Кому всунешь, ту и чпокнешь (Сергей Логинов / Кинокомпания «Клубничка») [2010 г., Feature, Anal Sex, Russian Girls, DVDRip] (Оля Захарова, Таня Легенда, Злата Козак, Тася Кошечкина, Лида Хорошева, Злата Пинки, Лена Нимфа, Гуля Мамедова, Е. Скворцова)

Reply to topic
 
Author
Message

XP1971 ®

Торрент-статистика

Post 01-Apr-2017 20:24

[Quote]

-Кому всунешь, ту и чпокнешь-- Страна: Russia
Год выпуска: 2010 г.
Режиссер: Сергей Логинов
Продолжительность: 03:01:03
Студия: Кинокомпания «Клубничка»
Оригинальный аудиопоток: русский
Жанр: Feature, Anal Sex, Russian Girls-В ролях:
Оля Захарова, Таня Легенда, Злата Козак, Тася Кошечкина, Лида Хорошева, Злата Пинки, Лена Нимфа, Гуля Мамедова, Ева Скворцова, Тина Радзивилл, Люся Ресничкина, Дима Стрелков-Описание:
Продолжение фильма «Сибирский бурильщик». На этот раз разговоров мало, зато самого секса много! Прибывший с берегов озера Байкал сибирский бурильщик Дима Стрелков тормозить не желает. Он продолжает чпокать девушек западной части России. В этом фильме 11 девушек. Весёлый фильм, 100% реалити из жизни граждан России. Приятного просмотра.-
Контейнер: AVI
Аудио кодек: AC3
Видео кодек: AVC
Cубтитры: отсутствуют
Качество видео: DVDRip
Аудио: Advanced Audio | 48.0 KHz | 2 ch | 128.0 Kbps
Видео: AVC | 720х576 | 1024 Kbps | 25.0 fps | 0.197 bit/pixel

Media Info

Код:
Общее
Полное имя : Кому всунешь, ту и чпокнешь_[...].avi
Формат : AVI
Формат/Информация : Audio Video Interleave
Профиль формата : OpenDML
Размер файла : 2,76 Гбайт
Продолжительность : 3 ч. 1 м.
Общий поток : 2182 Кбит/сек
Программа кодирования : Lavf56.36.100
Видео
Идентификатор : 1
Формат : AVC
Формат/Информация : Advanced Video Codec
Профиль формата : [email protected]/*  */
Параметр CABAC формата : Да
Параметр ReFrames формата : 1 кадр
Параметр GOP формата : M=1, N=25
Идентификатор кодека : H264
Продолжительность : 3 ч. 1 м.
Битрейт : 2044 Кбит/сек
Ширина : 720 пикселей
Высота : 576 пикселей
Соотношение сторон : 16:9
Соотношение сторон в оригинале : 1,738
Частота кадров : 25,000 кадров/сек
Стандарт вещания : PAL
Цветовое пространство : YUV
Субдискретизация насыщенности : 4:2:0
Битовая глубина : 8 бит
Тип развёртки : Прогрессивная
Бит/(Пиксели*Кадры) : 0.197
Размер потока : 2,59 Гбайт (94%)
Цветовой диапазон : Limited
Аудио
Идентификатор : 0
Формат : AC-3
Формат/Информация : Audio Coding 3
Расширение режима : CM (complete main)
Параметр Endianness формата : Big
Идентификатор кодека : 2000
Продолжительность : 3 ч. 1 м.
Вид битрейта : Постоянный
Битрейт : 128 Кбит/сек
Каналы : 2 канала
Расположение каналов : Front: L R
Частота : 48,0 КГц
Битовая глубина : 16 бит
Метод сжатия : С потерями
Размер потока : 166 Мбайт (6%)
Выравнивание : Соединение по промежуткам
Продолжительность промежутка : 40 мс. (1,00 видеокадр)

Скринлист

Скриншоты

                             
 
Display posts from previous:    
Reply to topic

The time now is: Today 02:45

All times are GMT + 3 Hours



You cannot post new topics in this forum
You cannot reply to topics in this forum
You cannot edit your posts in this forum
You cannot delete your posts in this forum
You cannot vote in polls in this forum
You cannot attach files in this forum
You cannot download files in this forum