Today is a free download without charge Download

NG: Суперспособности животных / Animal Superpowers (сезон 1, эпизоды 1-3 из 3) (2012) HDTVRip [H.264/720p]

Reply to topic
 
Author
Message

}{@R0N ®

Longevity: 4 years 1 month

Posts: 7614

Торрент-статистика

Post 24-Feb-2017 16:49

[Quote]

Суперспособности животных / Animal Superpowers - Телекомпания: США, National Geographic Cannel
Жанр: Документальный, научно-популярный, фауна, флора
Режиссёры: Том Кук(2 эпизода), Роланд Даст (1 эпизод)
Участники: Патрик Стюарт
Описание:
Патрик Стюарт исследует невероятные способности некоторых из самых смертельно опасных животных. Так, мы видим, как группа ученых выслеживает осьминогов, которые меняют форму и цвет кожи, и саламандр, наделенных умением, подобно пришельцам, вновь выращивать свои потерянные конечности. Использование сочетания футуристических съемок и захватывающей CGI анимации помогает зрителям фильма лучше познать секреты суперспособностей этих представителей животного мира.

Продолжительность: 3 x ~00:45:00
Качество видео: HDTVRip
Перевод: Одноголосый закадровый, профессиональный, студия "АРК ТВ"
Видео: AVC/H.264, 1280x720, ~3 407 Kbps
Аудио #1: Русский, AC3, 2 ch, 192 Kbps
Аудио #2: Английский, AC3, 2 ch, 192 Kbps

Mediainfo: (тех. данные всех серий идентичны)

Общее
Уникальный идентификатор : 214904771195366706576061969142696451709 (0xA1AD274576BFB0998C4C1DD39DB51E7D)
Полное имя : F:\КИНО\Суперспособности животных\1. Extreme hunters - Экстремальные охотники.mkv
Формат : Matroska
Версия формата : Version 4 / Version 2
Размер файла : 1,22 Гбайт
Продолжительность : 44 м. 59 с.
Общий поток : 3868 Кбит/сек
Название фильма : Animal Superpowers / Суперспособности животных
Дата кодирования : UTC 2013-10-22 16:32:13
Программа кодирования : mkvmerge v6.5.0 ('Isn't she lovely') built on Oct 20 2013 12:50:05
Библиотека кодирования : libebml v1.3.0 + libmatroska v1.4.1
Видео
Идентификатор : 1
Формат : AVC
Формат/Информация : Advanced Video Codec
Профиль формата : [url=mailto:High@L4.1]High@L4.1[/url]
Параметр CABAC формата : Да
Параметр ReFrames формата : 5 кадров
Идентификатор кодека : V_MPEG4/ISO/AVC
Продолжительность : 44 м. 59 с.
Битрейт : 3407 Кбит/сек
Ширина : 1280 пикселей
Высота : 720 пикселей
Соотношение сторон : 16:9
Режим частоты кадров : Постоянный
Частота кадров : 25,000 кадров/сек
Цветовое пространство : YUV
Субдискретизация насыщенности : 4:2:0
Битовая глубина : 8 бит
Тип развёртки : Прогрессивная
Бит/(Пиксели*Кадры) : 0.148
Размер потока : 1,07 Гбайт (88%)
Библиотека кодирования : x264 core 124 r2197 69a0443
Настройки программы : cabac=1 / ref=5 / deblock=1:0:0 / analyse=0x3:0x113 / me=umh / subme=8 / psy=1 / psy_rd=1.00:0.00 / mixed_ref=1 / me_range=16 / chroma_me=1 / trellis=1 / 8x8dct=1 / cqm=0 / deadzone=21,11 / fast_pskip=1 / chroma_qp_offset=-2 / threads=12 / sliced_threads=0 / nr=0 / decimate=1 / interlaced=0 / bluray_compat=0 / constrained_intra=0 / bframes=3 / b_pyramid=2 / b_adapt=2 / b_bias=0 / direct=3 / weightb=1 / open_gop=0 / weightp=2 / keyint=250 / keyint_min=25 / scenecut=40 / intra_refresh=0 / rc_lookahead=50 / rc=crf / mbtree=1 / crf=20.0 / qcomp=0.60 / qpmin=0 / qpmax=69 / qpstep=4 / ip_ratio=1.40 / aq=1:1.00
Язык : English
Default : Да
Forced : Нет
Цветовой диапазон : Limited
Коэффициенты матрицы : BT.709
Аудио #1
Идентификатор : 2
Формат : AC-3
Формат/Информация : Audio Coding 3
Расширение режима : CM (complete main)
Параметр Endianness формата : Big
Идентификатор кодека : A_AC3
Продолжительность : 44 м. 59 с.
Вид битрейта : Постоянный
Битрейт : 192 Кбит/сек
Каналы : 2 канала
Расположение каналов : Front: L R
Частота : 48,0 КГц
Частота кадров : 31,250 кадров/сек (1536 spf)
Битовая глубина : 16 бит
Метод сжатия : С потерями
Размер потока : 61,8 Мбайт (5%)
Заголовок : АРК ТВ
Язык : Russian
Default : Да
Forced : Нет
Аудио #2
Идентификатор : 3
Формат : AC-3
Формат/Информация : Audio Coding 3
Расширение режима : CM (complete main)
Параметр Endianness формата : Big
Идентификатор кодека : A_AC3
Продолжительность : 44 м. 59 с.
Вид битрейта : Постоянный
Битрейт : 192 Кбит/сек
Каналы : 6 каналов
Channel(s)_Original : 2 канала
Расположение каналов : Front: L R
Частота : 48,0 КГц
Частота кадров : 31,250 кадров/сек (1536 spf)
Битовая глубина : 16 бит
Метод сжатия : С потерями
Размер потока : 61,8 Мбайт (5%)
Язык : English
Default : Нет
Forced : Нет

Список серий:

1. Экстремальные охотники / Extreme Hunters
Патрик Стюарт изучает невероятные способности восприятия у акулы-молота, питона, гремучей змеи и кашалота. Для более детального исследования сценаристы, с помощью компьютерной графики, создают виртуальные модели этих животных.
2. Экстремальные убийцы / Extreme Killers
Патрик Стюарт приглашает нас в Англию, чтобы изучить сапсана, самое быстрое существо на планете. Устройство слежения и высокоскоростные камеры показывают, как сокол ныряет вниз со скоростью 200 миль в час! В Алабаме мы раскроем тайны суперчелюстей аллигатора, который производит один из самых сильных укусов в мире. В Амазонке, слепая армия муравьёв использует свои сверхспособности, чтобы общаться между собой и стать суперорганизмом способным убить добычу в 100 раз больше собственного размера.
3. Экстремальная самозащита / Extreme Survivors
Патрик Стюарт исследует разные способы защиты и выживания животных: маскировку у осьминогов, электроразряд у угрей и регенерацию у саламандр.
Скриншоты:
       

Дополнительные скриншоты:

       
Other forum [Profile] [PM]
Display posts from previous:    
Reply to topic

The time now is: Today 13:24

All times are GMT + 3 Hours



You cannot post new topics in this forum
You cannot reply to topics in this forum
You cannot edit your posts in this forum
You cannot delete your posts in this forum
You cannot vote in polls in this forum
You cannot attach files in this forum
You cannot download files in this forum