Today is a free download without charge Download

Белое солнце пустыни (Владимир Мотыль) [HDTV, боевик, драма, мелодрама, комедия, приключения, военный, 720p]

Reply to topic
 
Author
Message

}{@R0N ®

Longevity: 4 years 1 month

Posts: 7614

Торрент-статистика

Post 21-Feb-2017 18:33

[Quote]

Белое солнце пустыни - Производство: СССР, Мосфильм, Ленфильм
Жанр: боевик, драма, мелодрама, комедия, приключения, военный
Режиссер: Владимир Мотыль
Актеры: Анатолий Кузнецов, Спартак Мишулин, Кахи Кавсадзе, Павел Луспекаев, Раиса Куркина, Татьяна Федотова, Николай Годовиков, Муса Дудаев, Николай Бадьев, Владимир Кадочников
Описание:
Бесконечная пустыня, боец Сухов, прикуривающий с динамитной шашки, нескладный Петруха с вечно заклинивающей трехлинейкой, обаятельный Верещагин, с надоевшей черной икрой и знаменитыми песнями-балладами, ловкий Саид.

Возраст: 6+ (зрителям, достигшим 6 лет)
Релиз от: smithland
Продолжительность: 01:23:32
Качество видео: HDTV
Видео: AVC/H.264, 1280x720, ~8 581 Kbps
Аудио: AC3, 6 ch, 384 kbps, CBR

Mediainfo:

General
Unique ID : 252266240050686323062879045637784919001 (0xBDC8B5E7BAB7D5FE85EFE7EED19EDBD9)
Complete name : Белое солнце пустыни.mkv
Format : Matroska
Format version : Version 4 / Version 2
File size : 5.34 GiB
Duration : 1h 23mn
Overall bit rate : 9 147 Kbps
Movie name : Белое солнце пустыни [remux by smithland]
Encoded date : UTC 2017-01-20 10:22:36
Writing application : mkvmerge v9.5.0 ('Quiet Fire') 64bit
Writing library : libebml v1.3.4 + libmatroska v1.4.5
Attachements : COVER.jpg
DURATION : 01:23:31.680000000
NUMBER_OF_FRAMES : 156615
NUMBER_OF_BYTES : 240560640
_STATISTICS_WRITING_APP : mkvmerge v9.5.0 ('Quiet Fire') 64bit
_STATISTICS_WRITING_DATE_UTC : 2017-01-20 10:22:36
_STATISTICS_TAGS : BPS DURATION NUMBER_OF_FRAMES NUMBER_OF_BYTES
Video
ID : 1
Format : AVC
Format/Info : Advanced Video Codec
Format profile : [url=mailto:High@L4.1]High@L4.1[/url]
Format settings, CABAC : Yes
Format settings, ReFrames : 4 frames
Format settings, GOP : M=4, N=24
Codec ID : V_MPEG4/ISO/AVC
Duration : 1h 23mn
Bit rate : 8 581 Kbps
Width : 1 280 pixels
Height : 720 pixels
Display aspect ratio : 16:9
Frame rate mode : Constant
Frame rate : 23.976 fps
Color space : YUV
Chroma subsampling : 4:2:0
Bit depth : 8 bits
Scan type : Progressive
Bits/(Pixel*Frame) : 0.388
Stream size : 5.01 GiB (94%)
Language : Russian
Default : Yes
Forced : Yes
Audio
ID : 2
Format : AC-3
Format/Info : Audio Coding 3
Mode extension : CM (complete main)
Format settings, Endianness : Big
Codec ID : A_AC3
Duration : 1h 23mn
Bit rate mode : Constant
Bit rate : 384 Kbps
Channel(s) : 6 channels
Channel positions : Front: L C R, Side: L R, LFE
Sampling rate : 48.0 KHz
Compression mode : Lossy
Stream size : 229 MiB (4%)
Language : Russian
Default : Yes
Forced : Yes
Скриншоты:
         
Other forum [Profile] [PM]
Display posts from previous:    
Reply to topic

The time now is: Today 08:17

All times are GMT + 3 Hours



You cannot post new topics in this forum
You cannot reply to topics in this forum
You cannot edit your posts in this forum
You cannot delete your posts in this forum
You cannot vote in polls in this forum
You cannot attach files in this forum
You cannot download files in this forum