Today is a free download without charge Download

Из жизни ёжика в период глобального потепления / Climate Change: A Talk with the Animals, The Hedgehog (2013) SATRip

Reply to topic
 
Author
Message

}{@R0N ®

Longevity: 4 years 1 month

Posts: 7614

Торрент-статистика

Post 20-Feb-2017 23:11

[Quote]

Из жизни ёжика в период глобального потепления
Climate Change: A Talk with the Animals, The Hedgehog
- Телекомпания: Франция
Жанр: Документальный
Режиссер: Мари-Элен Баконэ
Описание:
В Версальском парке живет ёж. Его предки поселились там при Людовике XIV, во времена строительства дворца. Зимы тогда были долгими и суровыми, и животные проводили их в безмятежной спячке. Но теперь глобальное потепление все изменило. Впрочем, и в капризах климата есть свои плюсы. Подробнее об этом в фильме расскажет... сам французский ёжик.
Продолжительность: 00:51:59
Качество видео: SATRip
Перевод: Двуголосый закадровый, профессиональный
Видео: Xvid, 720x400, ~1431 Kbps
Аудио: MP3, 2 ch, 192kbps

Mediainfo:

Общее
Полное имя : F:\КИНО\Из жизни ёжика в период глобального потепления.avi
Формат : AVI
Формат/Информация : Audio Video Interleave
Размер файла : 632 Мбайт
Продолжительность : 51 м. 59 с.
Общий поток : 1699 Кбит/сек
Программа кодирования : VirtualDubMod 1.5.10.3 | www.virtualdub-fr.org || (build 2550/release)
Библиотека кодирования : VirtualDubMod build 2550/release
IsTruncated : Yes
Видео
Идентификатор : 0
Формат : MPEG-4 Visual
Профиль формата : Advanced Simple@L5
Параметр BVOP формата : 1
Параметр QPel формата : Нет
Параметр GMC формата : Без точки перехода
Параметр матрицы формата : Default (H.263)
Идентификатор кодека : XVID
Идентификатор кодека/Подсказка : XviD
Продолжительность : 51 м. 59 с.
Битрейт : 1431 Кбит/сек
Ширина : 720 пикселей
Высота : 400 пикселей
Соотношение сторон : 16:9
Частота кадров : 25,000 кадров/сек
Цветовое пространство : YUV
Субдискретизация насыщенности : 4:2:0
Битовая глубина : 8 бит
Тип развёртки : Прогрессивная
Метод сжатия : С потерями
Бит/(Пиксели*Кадры) : 0.199
Размер потока : 532 Мбайт (84%)
Библиотека кодирования : XviD 1.2.1 (UTC 2008-12-04)
Аудио
Идентификатор : 1
Формат : MPEG Audio
Версия формата : Version 1
Профиль формата : Layer 3
Идентификатор кодека : 55
Идентификатор кодека/Подсказка : MP3
Продолжительность : 51 м. 59 с.
Вид битрейта : Постоянный
Битрейт : 192 Кбит/сек
Каналы : 2 канала
Частота : 48,0 КГц
Метод сжатия : С потерями
Размер потока : 71,4 Мбайт (11%)
Выравнивание : Соединение по промежуткам
Библиотека кодирования : LAME3.99r
Настройки программы : -m s -V 4 -q 0 -lowpass 18.6 -b 192
Скриншоты:
       
Other forum [Profile] [PM]
Display posts from previous:    
Reply to topic

The time now is: Today 03:53

All times are GMT + 3 Hours



You cannot post new topics in this forum
You cannot reply to topics in this forum
You cannot edit your posts in this forum
You cannot delete your posts in this forum
You cannot vote in polls in this forum
You cannot attach files in this forum
You cannot download files in this forum