Сегодня идет свободное скачивание без начисления Download

Не дал девке побриться / Young German Couple Anal In The Bathroom) [2015 г., Amateur, Oral Sex, Anal Sex, CamRip, 720p] (Young german girl)

Ответить на тему
 
Автор
Сообщение

XP1971 ®

Пол:

Стаж: 4 года 9 месяцев

Сообщений: 5314

Торрент-статистика

Пост 17-Фев-2017 07:27

[Цитировать]

-Не дал девке побриться

Young German Couple Anal In The Bathroom
-- Страна: Germany
Год выпуска: 2015 г.
Перевод: Отсутствует
Студия & Режиссер: N/A
Продолжительность: 00:05:21
Жанр: Amateur, Oral Sex, Anal Sex
Оригинальный аудиопоток: немецкий-В ролях:
Young german girl-Оригинальное описание:
Sitting in the evening the girl loved his Kaiser's push heated, propertyval znachitstsa Yes pussy shave. Then, Hans arrives, arrogant face, gives her in the face, puts cancer and Fucks in the ass. Forcing the girl to swallow his sperm, he calms down and allows the girl to continue shaving. Here is our modern German family.-Описание на русском:
Сидит вечерком девка Грета на любимом своём кайзеровском толчке с обогревом, попёрдывает значицца да письку бреет. Тут врывается Ганс, наглая морда, даёт ей по роже, ставит рачком и дерёт в жопу. Заставив девку проглотить свою сперму, Ганс успокаивается и разрешает девке продолжить бритьё. Уложился значит, пока реклама по телеку шла. Вот такая она, современная немецкая семья.-
Контейнер: FLV
Видео кодек: AVC
Аудио кодек: AAC
Cубтитры: отсутствуют
Качество видео: CamRip
Стандарт разрешения: 720p
Аудио: Advanced Audio | 44.1 KHz | 2 ch | 56.7 Kbps
Видео: AVC | 1280х720 | 2048 Кbps | 25.0 fps | 0.089 bit/pixel

Media Info

Общее
Полное имя : Young German Couple Anal In The Bathroom_[/*spam*/].flv
Формат : Flash Video
Размер файла : 81,3 Мбайт
Продолжительность : 5 м. 21 с.
Общий поток : 2119 Кбит/сек
Дата пометки : UTC 2015-12-15 06:40:05
Видео
Формат : AVC
Формат/Информация : Advanced Video Codec
Профиль формата : [email protected]/* */
Параметр CABAC формата : Нет
Параметр ReFrames формата : 3 кадра
Идентификатор кодека : 7
Продолжительность : 5 м. 21 с.
Битрейт : 2048 Кбит/сек
Ширина : 1280 пикселей
Высота : 720 пикселей
Соотношение сторон : 16:9
Режим частоты кадров : Постоянный
Частота кадров : 25,000 кадров/сек
Цветовое пространство : YUV
Субдискретизация насыщенности : 4:2:0
Битовая глубина : 8 бит
Тип развёртки : Прогрессивная
Бит/(Пиксели*Кадры) : 0.089
Размер потока : 78,8 Мбайт (97%)
Библиотека кодирования : x264 core 136
Настройки программы : cabac=0 / ref=3 / deblock=1:0:0 / analyse=0x1:0x111 / me=hex / subme=7 / psy=1 / psy_rd=1.00:0.00 / mixed_ref=1 / me_range=16 / chroma_me=1 / trellis=1 / 8x8dct=0 / cqm=0 / deadzone=21,11 / fast_pskip=1 / chroma_qp_offset=-2 / threads=1 / lookahead_threads=1 / sliced_threads=0 / nr=0 / decimate=1 / interlaced=0 / bluray_compat=0 / constrained_intra=0 / bframes=0 / weightp=0 / keyint=250 / keyint_min=25 / scenecut=40 / intra_refresh=0 / rc_lookahead=40 / rc=2pass / mbtree=1 / bitrate=2048 / ratetol=1.0 / qcomp=0.60 / qpmin=0 / qpmax=69 / qpstep=4 / cplxblur=20.0 / qblur=0.5 / ip_ratio=1.40 / aq=1:1.00
Аудио
Формат : AAC
Формат/Информация : Advanced Audio Codec
Профиль формата : LC
Идентификатор кодека : 10
Продолжительность : 5 м. 21 с.
Битрейт : 56,7 Кбит/сек
Каналы : 2 канала
Расположение каналов : Front: L R
Частота : 44,1 КГц
Метод сжатия : С потерями
Размер потока : 2,18 Мбайт (3%)

Скринлист

Скриншоты

                             
[

_________________
Вне форума [Профиль] [ЛС]
Показать сообщения:    
Ответить на тему

Текущее время: Сегодня 20:36

Часовой пояс: GMT + 3



Вы не можете начинать темы
Вы не можете отвечать на сообщения
Вы не можете редактировать свои сообщения
Вы не можете удалять свои сообщения
Вы не можете голосовать в опросах
Вы не можете прикреплять файлы к сообщениям
Вы не можете скачивать файлы