Today is a free download without charge Download

Принцесса с севера / Серии: 1-4 из 4 (Владимир Зайкин, Марина Сулейманова) [2015, Мелодрама, HDTVRip]

Reply to topic
 
Author
Message

Omen ®

Longevity: 6 years 5 months

Posts: 171875

Торрент-статистика

Post 16-Jan-2017 01:00

[Quote]

Принцесса с севера
- Год выпуска: 2015
Производство: «Киностудия Крылья»
Жанр: Мелодрама
Продолжительность: 00:44:00
Субтитры: нет-Режиссёр: Владимир Зайкин, Марина Сулейманова-В ролях: Полина Максимова, Алексей Нестеренко, Роман Курцын, Василий Шемякинский, Дмитрий Марьянов, Шухрат Иргашев, Павел Майков, Ольга Балашова, Юлия Юсупова, Ирина Лосева, Рустам Сагдуллаев, Амет Согиа, Мария Кудрявцева, Амаяк Чинарян, Константин Адаев, Владимир Носик, Аркадий Данилов (II), Александр Печенин, Марина Зубанова, Юрий Гумиров, Софья Цепкова-Описание: Вика обучается в самом престижном ВУЗе Москвы, она занимается изучением истории и культуры страны Аджахар. Для того чтобы узнать об этой стране больше, девушка отправляется туда в командировочный отпуск.-Релиз-группа: -Сэмпл-Качество: HDTVRip
Формат: AVI
Видео кодек: XviD
Аудио кодек: AC3
Видео: 720х400 (16:9), 25.000 fps, XviD, 1577 Kbps, 0.22 Bits/Pixel
Аудио: 48 kHz, AC3 Dolby Digital, 2 ch, 192 Kbps-Реклама: Нет-

MI

General
Complete name : Downloads\Princessa.s.severa.2016.HDTVRip.Files-x\01.Princessa.s.severa.2016.HDTVRip.Files-x.avi
Format : AVI
Format/Info : Audio Video Interleave
File size : 550 MiB
Duration : 43mn 16s
Overall bit rate : 1 778 Kbps
Writing application : VirtualDubMod 1.5.10.3 | www.virtualdub-fr.org || (build 2550/release)
Writing library : VirtualDubMod build 2550/release
Video #0
ID : 0
Format : MPEG-4 Visual
Format profile : Advanced Simple@L5
Format settings, BVOP : 1
Format settings, QPel : No
Format settings, GMC : No warppoints
Format settings, Matrix : Custom
Codec ID : XVID
Codec ID/Hint : XviD
Duration : 43mn 16s
Bit rate : 1 577 Kbps
Width : 720 pixels
Height : 400 pixels
Display aspect ratio : 16:9
Frame rate : 25.000 fps
Color space : YUV
Chroma subsampling : 4:2:0
Bit depth : 8 bits
Scan type : Progressive
Compression mode : Lossy
Bits/(Pixel*Frame) : 0.219
Stream size : 488 MiB (89%)
Writing library : XviD 73
Audio #1
ID : 1
Format : AC-3
Format/Info : Audio Coding 3
Mode extension : CM (complete main)
Format settings, Endianness : Big
Codec ID : 2000
Duration : 43mn 16s
Bit rate mode : Constant
Bit rate : 192 Kbps
Channel(s) : 2 channels
Channel positions : Front: L R
Sampling rate : 48.0 KHz
Bit depth : 16 bits
Compression mode : Lossy
Stream size : 59.4 MiB (11%)
Alignment : Split accross interleaves
Interleave, duration : 40 ms (1.00 video frame)
Interleave, preload duration : 500 ms

Скриншоты

Other forum [Profile] [PM]
Similar theme
Forum Topic Author Torrent Replies Last Post
./templates/default/images/folder_dl.gif TPS (3rd Person) Принц Персии - Антология / Prince of Persia - Anthology (2003-2010) [RePack] от R.G. Механики nsa1977
1 | 0

0 | 1615

27

2011-05-21 01:50
nsa1977 Latest
Display posts from previous:    
Reply to topic

The time now is: Today 22:22

All times are GMT + 3 Hours



You cannot post new topics in this forum
You cannot reply to topics in this forum
You cannot edit your posts in this forum
You cannot delete your posts in this forum
You cannot vote in polls in this forum
You cannot attach files in this forum
You cannot download files in this forum