Сегодня идет свободное скачивание без начисления Download

Хипстеры / Hipsters TeenFidelity) [2016 г., Hardcore, Blowjob, Deep Throat, Creampie, SiteRip] (Elena Koshka)

Ответить на тему
 
Автор
Сообщение

XP1971 ®

Пол:

Стаж: 4 года 11 месяцев

Сообщений: 5741

Торрент-статистика

Пост 14-Янв-2017 13:31

[Цитировать]

-Хипстеры

Hipsters
--
Страна: USA
Режиссер: N/A
Студия: TeenFidelity
Год выпуска: 2016 г.
Перевод: Отсутствует
Продолжительность: 00:47:22
Оригинальный аудиопоток: английский
Жанр: Hardcore, Blowjob, Deep Throat, Creampie-В ролях:
Elena Koshka-Оригинальное описание:
Lenka Koshka kind of a bitch, sitting on the couch, scratching
his ass, taking a selfie and here comes a man here and inserts
it in her mouth his cock. I was ready to explode, selfie is heating
up, end up at the same time.-Описание на русском:
Ленка Кошкина та ещё стерва, сидит на диване, чешет жопу,
делает селфи и тут приходит какой-то дядя и вставляет ей в
рот свой член. Романтика зашкаливает, селфи накаляется,
кончают одновременно.-
Контейнер: MP4
Аудио кодек: AAC
Видео кодек: AVC
Cубтитры: отсутствуют
Качество видео: SiteRip
Аудио: Advanced Audio | 48.0 KHz | 2 ch | 256.0 Kbps
Видео: AVC | 640х360 | 1600 Кbps | 23.976 fps | 0.290 bit/pixel

Media Info

Код:
Общее
Полное имя : Elena Koshka Hipsters_[/*spam*/].mp4
Формат : MPEG-4
Профиль формата : Base Media / Version 2
Идентификатор кодека : mp42
Размер файла : 635 Мбайт
Продолжительность : 47 м.
Общий поток : 1874 Кбит/сек
Дата кодирования : UTC 2016-11-08 20:05:52
Дата пометки : UTC 2016-11-09 04:06:26
Программа кодирования : Sorenson Squeeze
Примечание : Encoded by
Видео
Идентификатор : 2
Формат : AVC
Формат/Информация : Advanced Video Codec
Профиль формата : [email protected]/*  */
Параметр CABAC формата : Да
Параметр ReFrames формата : 4 кадра
Идентификатор кодека : avc1
Идентификатор кодека/Информация : Advanced Video Coding
Продолжительность : 47 м.
Битрейт : 1600 Кбит/сек
Ширина : 640 пикселей
Высота : 360 пикселей
Соотношение сторон : 16:9
Режим частоты кадров : Постоянный
Частота кадров : 23,976 кадра/сек
Цветовое пространство : YUV
Субдискретизация насыщенности : 4:2:0
Битовая глубина : 8 бит
Тип развёртки : Прогрессивная
Бит/(Пиксели*Кадры) : 0.290
Размер потока : 546 Мбайт (86%)
Библиотека кодирования : x264 core 138
Настройки программы : cabac=1 / ref=3 / deblock=1:0:0 / analyse=0x3:0x113 / me=hex / subme=7 / psy=1 / psy_rd=1.00:0.00 / mixed_ref=1 / me_range=16 / chroma_me=1 / trellis=1 / 8x8dct=1 / cqm=0 / deadzone=21,11 / fast_pskip=1 / chroma_qp_offset=-2 / threads=36 / lookahead_threads=2 / sliced_threads=0 / nr=0 / decimate=1 / interlaced=0 / bluray_compat=0 / stitchable=1 / constrained_intra=0 / bframes=3 / b_pyramid=2 / b_adapt=1 / b_bias=0 / direct=1 / weightb=1 / open_gop=0 / weightp=2 / keyint=240 / keyint_min=23 / scenecut=50 / intra_refresh=0 / rc_lookahead=40 / rc=2pass / mbtree=1 / bitrate=1600 / ratetol=50.0 / qcomp=0.60 / qpmin=0 / qpmax=69 / qpstep=4 / cplxblur=20.0 / qblur=0.5 / ip_ratio=1.40 / aq=1:1.00
Дата кодирования : UTC 2016-11-08 20:05:52
Дата пометки : UTC 2016-11-08 20:05:52
Цветовой диапазон : Limited
Основные цвета : BT.601 PAL
Коэффициенты матрицы : BT.601
Аудио
Идентификатор : 1
Формат : AAC
Формат/Информация : Advanced Audio Codec
Профиль формата : LC
Идентификатор кодека : 40
Продолжительность : 47 м.
Duration_LastFrame : -10 мс.
Вид битрейта : Постоянный
Битрейт : 256 Кбит/сек
Каналы : 2 канала
Расположение каналов : Front: L R
Частота : 48,0 КГц
Метод сжатия : С потерями
Размер потока : 86,7 Мбайт (14%)
Дата кодирования : UTC 2016-11-08 20:05:52
Дата пометки : UTC 2016-11-08 20:05:52
Прочее #1
Идентификатор : 3
Тип : Scene description
Формат : System Core
Идентификатор кодека : 2
Продолжительность : 47 м.
Дата кодирования : UTC 2016-11-08 20:06:22
Дата пометки : UTC 2016-11-08 20:06:22
Прочее #2
Идентификатор : 4
Тип : Object description
Формат : System
Идентификатор кодека : 1
Продолжительность : 47 м.
Дата кодирования : UTC 2016-11-08 20:06:22
Дата пометки : UTC 2016-11-08 20:06:22

Скринлист

Скриншоты

                                   

_________________
На форуме [Профиль] [ЛС]
Показать сообщения:    
Ответить на тему

Текущее время: Сегодня 22:54

Часовой пояс: GMT + 3



Вы не можете начинать темы
Вы не можете отвечать на сообщения
Вы не можете редактировать свои сообщения
Вы не можете удалять свои сообщения
Вы не можете голосовать в опросах
Вы не можете прикреплять файлы к сообщениям
Вы не можете скачивать файлы