Сегодня идет свободное скачивание без начисления Download

Теория большого взрыва / The Big Bang Theory / Сезон: 10 / Серии: 1-12 из 24 (Марк Сендроуски, Питер Чакос, Энтони Джозеф Рич) [2016, США, Комедия, WEB-DL 720p] VO (Кураж-Бамбей) + VO (Кураж-Бамбей по заказу Paramount Comedy) + Original + Subs (Eng)

Ответить на тему
 
Автор
Сообщение

Omen ®

Стаж: 5 лет 7 месяцев

Сообщений: 185412

Торрент-статистика

Пост 14-Янв-2017 01:00

[Цитировать]

Теория большого взрыва / The Big Bang Theory- Год выпуска: 2016
Страна: США
Жанр: Комедия
Продолжительность: ~00:23:00-Перевод: Профессиональный (одноголосый закадровый) | Кураж-Бамбей
Перевод: Профессиональный (одноголосый закадровый) | Кураж-Бамбей по заказу Paramount Comedy-Режиссёр: Марк Сендроуски, Питер Чакос, Энтони Джозеф Рич-В ролях: Джим Парсонс, Джонни Галэки, Кейли Куоко-Суитинг, Саймон Хелберг, Кунал Нэйэр, Мелисса Рауш, Майем Биалик, Кевин Сасмэн, Кэрол Энн Сьюзи, Джон Росс Боуи-Описание: The Big Bang Theory — это, уже ставший классическим, ситком от телеканала CBS, который вышел на экраны 24 сентября 2007 года. Его популярность можно сравнить, разве что, с нестареющей классикой Друзей, который тоже шел 10 лет и, наверное, сложно найти человека, который про него не слышал. The Big Bang Theory также снимается в студии, где присутствуют зрители компаниями Chuck Lorre Productions и Warner Bros. Television.
Можно сказать, что именно это шоу положило начало моде на «гиков» — умных парней со сложным детством и проблемами в общении со сверстниками, которые закрывались в своих комнатах и гаражах, мастерили домашние ядерные реакторы и зачитывались комиксами от Marvel или DC. У них очень сложные отношения с девушками, но это и есть причина того, что такие истории называются ситком (комедия положений).
Главные персонажи — это два очень умных физика, Леонард и Шелдон, которые живут вместе, все знают про атомы и физику частиц, но очень мало смыслят в обычной жизни. У них есть такие же «ущербные» друзья-товарищи — озабоченый инженер Говард Воловитц и астрофизик из Индии Раджеш Кутрапали, который напрочь теряет дар речи при виде девушки. На всё это сверху добавляем разбитную красотку Пенни, которая живёт напротив Шелдона с Леонардом. Она учит их жизни, они пытаются её воспитывать. Что в итоге получается — смотрите в сериале!-[url=tracker.php?f=507,2396,189,2366&nm=The+Big+Bang+Theory]Ссылка на все раздачи сериала "The Big Bang Theory"[/url]- by s_white-Цитата:
Цитата:
Дорожки №1 и №2 получены наложением выделенного голоса на центр оригинального AC3. Работа со звуком kmarats.
Дорожка №2 только в сериях 01-04, 06-09, будет добавляться по мере трансляции сериала на канале Paramount Comedy.
Благодарим xironfs за запись звука с канала Paramount Comedy.
-Качество: WEB-DL 720p
Контейнер: MKV
Видео: 1278x720, 23.976 fps, MPEG-4 AVC, ~3900 kbps avg, 0.183 bit/pixel
Аудио: 48 kHz, AC3, 3/2 (L,C,R,l,r) + LFE ch, 384.00 kbps avg | Кураж-Бамбей
Аудио: 48 kHz, AC3, 3/2 (L,C,R,l,r) + LFE ch, 384.00 kbps avg | Кураж-Бамбей по заказу Paramount Comedy (только в 1-4,6-9 ой серии)
Аудио: 48 kHz, AC3, 3/2 (L,C,R,l,r) + LFE ch, 384.00 kbps avg
Субтитры: English
Реклама: Отсутствует-

MediaInfo

ОбщееУникальный идентификатор : 170322493472345929871264820481294625805 (0x8022EB4614DE29F4B0D2F8F97DAC6C0D)Полное имя : E:\Movies\The Big Bang Theory (Season 10) WEB-DL 720p\The.Big.Bang.Theory.S10E01.WEB-DL.720p.Rus.Eng.HDCLUB.mkvФормат : MatroskaВерсия формата : Version 4 / Version 2Размер файла : 808 МбайтПродолжительность : 21 м. 45 с.Режим общего битрейта : ПеременныйОбщий поток : 5194 Кбит/секНазвание фильма : The Big Bang Theory 10x01 (2016) - Release kmarats for HDCLUBДата кодирования : UTC 2016-10-27 09:52:38Программа кодирования : mkvmerge v9.4.2 ('So High') 64bitБиблиотека кодирования : libebml v1.3.4 + libmatroska v1.4.5
ВидеоИдентификатор : 1Формат : AVCФормат/Информация : Advanced Video CodecПрофиль формата : High@L3.1Параметр CABAC формата : ДаПараметр ReFrames формата : 2 кадраИдентификатор кодека : V_MPEG4/ISO/AVCПродолжительность : 21 м. 45 с.Вид битрейта : ПеременныйБитрейт : 4039 Кбит/секМаксимальный битрейт : 768 Кбит/секШирина : 1278 пикселейВысота : 720 пикселейСоотношение сторон : 16:9Режим частоты кадров : ПостоянныйЧастота кадров : 23,976 (23976/1000) кадра/секЧастота кадров в оригинале : 25,000 кадров/секЦветовое пространство : YUVСубдискретизация насыщенности : 4:2:0Битовая глубина : 8 битТип развёртки : ПрогрессивнаяБит/(Пиксели*Кадры) : 0.183Размер потока : 629 Мбайт (78%)Заголовок : The Big Bang Theory 10x01 (2016) - Release kmarats for HDCLUBЯзык : EnglishDefault : ДаForced : Нет
Аудио #1Идентификатор : 2Формат : AC-3Формат/Информация : Audio Coding 3Расширение режима : CM (complete main)Параметр Endianness формата : BigИдентификатор кодека : A_AC3Продолжительность : 21 м. 45 с.Вид битрейта : ПостоянныйБитрейт : 384 Кбит/секКаналы : 6 каналовРасположение каналов : Front: L C R, Side: L R, LFEЧастота : 48,0 КГцЧастота кадров : 31,250 кадров/сек (1536 spf)Битовая глубина : 16 битМетод сжатия : С потерямиРазмер потока : 59,8 Мбайт (7%)Заголовок : KurajЯзык : RussianDefault : ДаForced : Нет
Аудио #2Идентификатор : 3Формат : AC-3Формат/Информация : Audio Coding 3Расширение режима : CM (complete main)Параметр Endianness формата : BigИдентификатор кодека : A_AC3Продолжительность : 21 м. 45 с.Вид битрейта : ПостоянныйБитрейт : 384 Кбит/секКаналы : 6 каналовРасположение каналов : Front: L C R, Side: L R, LFEЧастота : 48,0 КГцЧастота кадров : 31,250 кадров/сек (1536 spf)Битовая глубина : 16 битМетод сжатия : С потерямиРазмер потока : 59,8 Мбайт (7%)Заголовок : Paramount ComedyЯзык : RussianDefault : НетForced : Нет
Аудио #3Идентификатор : 4Формат : AC-3Формат/Информация : Audio Coding 3Расширение режима : CM (complete main)Параметр Endianness формата : BigИдентификатор кодека : A_AC3Продолжительность : 21 м. 45 с.Вид битрейта : ПостоянныйБитрейт : 384 Кбит/секКаналы : 6 каналовРасположение каналов : Front: L C R, Side: L R, LFEЧастота : 48,0 КГцЧастота кадров : 31,250 кадров/сек (1536 spf)Битовая глубина : 16 битМетод сжатия : С потерямиРазмер потока : 59,8 Мбайт (7%)Заголовок : EnglishЯзык : EnglishDefault : НетForced : Нет
ТекстИдентификатор : 5Формат : UTF-8Идентификатор кодека : S_TEXT/UTF8Идентификатор кодека/Информация : UTF-8 Plain TextПродолжительность : 21 м. 13 с.Битрейт : 100 бит/секCount of elements : 478Размер потока : 15,7 Кбайт (0%)Заголовок : eng-subЯзык : EnglishDefault : НетForced : Нет
-

Скриншоты

-

Внимание! Раздача ведётся путём добавления новых серий

Внимание! Раздача ведётся путём добавления новых серий; при каждом добавлении создаётся новый торрент. Чтобы начать докачку новой серии, пользователям необходимо сделать следующее:
(1) остановить скачивание,
(2) удалить старый торрент у себя из клиента (старые серии удалять не надо),
(3) скачать новый торрент и запустить его у себя в клиенте вместо старого, при этом указать клиенту путь в старую папку куда и должно происходить скачивание новых серий.
Ваш клиент при этом должен произвести хеширование (проверку) старой папки (если не производит сам - помогите ему сделать это), и будет докачивать только те серии которых у вас ещё нет. Старые серии при этом не удаляются, а продолжают раздаваться!
Eсли вы уже удалили старые серии, то предотвратить повторную закачку старых серий можно, отжав галочку в соответствующих местах при запуске нового торрента. По возможности, желательно не удалять старые серии как можно дольше чтобы релизёр не столько продолжал раздавать старые серии, а смог сконцентрироваться на новых.
Вне форума [Профиль] [ЛС]
Похожие темы
Форум Тема Автор Торрент Отв. Посл. сообщение
./templates/default/images/folder_dl.gif Психология, Тренинг, Саморазвитие Денис Бурхаев | Теория Контуров (2016) [MP3] }{@R0N
1 | 0

0 | 7949

10

2017-07-31 17:38
}{@R0N Последнее
Показать сообщения:    
Ответить на тему

Текущее время: Сегодня 21:06

Часовой пояс: GMT + 3



Вы не можете начинать темы
Вы не можете отвечать на сообщения
Вы не можете редактировать свои сообщения
Вы не можете удалять свои сообщения
Вы не можете голосовать в опросах
Вы не можете прикреплять файлы к сообщениям
Вы не можете скачивать файлы